BitTorrentTracker PerecTracker.org
BitTorrentTracker PerecTracker.org
    
Регистрация  ·  Вход
 
 · 
Забыли пароль?

  • Гроза (Владимир Петров) [1934, Драма, DVDRip]

    Ответить на тему
     
    Автор Сообщение

    Light

    Создавать темы 30-Мар-2015 09:00

           

    [Цитировать]

    Гроза
    Жанр: Драма
    Страна: СССР
    Студия: Ленинградская фабрика Союзфильм
    Год выпуска: 1934
    Продолжительность: 01:20:19
    Режиссёр: Владимир Петров
    В ролях:
    Варвара Массалитинова … Марфа Игнатьевна Кабанова (Кабаниха)
    Иван Чувелёв … Тихон Кабанов, сын Кабанихи
    Алла Тарасова … Катерина Петровна Кабанова, жена Тихона
    Ирина Зарубина … Варвара Кабанова, сестра Тихона
    Екатерина Корчагина-Александровская … Феклуша, странница
    Михаил Тарханов … Савел Прокофьич Дикой, купец
    Михаил Царёв … Борис Григорьевич, племянник Дикого
    Михаил Жаров … Ваня Кудряш, приказчик Дикого
    Степан Крылов … приказчик
    Описание: Экранизация одноимённой пьесы Александра Николаевича Островского.
    События происходят в первой половине XIX века в вымышленном приволжском городке Калинове. Здесь живет семья Кабановых: мать-купчиха, ее взрослые дети - Тихон и Варвара, Катерина - молодая жена Тихона. Душно Катерине в этой семье, тяжко. Мужа она не любит, мать его, Карабаниха, требует от всех беспрекословного подчинения, всех давит и тиранит. А Катерина, на беду свою, полюбила Бориса - племянника купца Дикого...
    Доп. информация: Релиз:
    Автор рипа: pmv
    Исходник найден в сети.
    * В данной раздаче представлена оригинальная версия фильма, не подвергнутая "восстановлению" на к/ст «Мосфильм» в 1965 году.
    * Оригинальный звук в хорошем качестве, взят из записи потока трансляции со спутника с ТК «Россия-Культура», любезно предоставленной ItarTass , за что ему Большое Спасибо.
    IMDb = 7,1/10 from 27 users -
    Кинопоиск = 6.210 (184) -
    ПРОСЬБА к СКАЧАВШИМ. НЕ УХОДИТЕ С РАЗДАЧИ, ПОМОГИТЕ ДРУГИМ СКАЧАТЬ!!!
    Качество видео: DVDRip
    Формат видео: AVI
    Видео: 720x544 (1.32:1), 25 fps, XviD build 73 ~2378 kbps avg, 0.24 bit/pixel
    Аудио: 48 kHz, MPEG Layer 3, 2 ch, ~128.00 kbps avg

    MediaInfo

    General
    Complete name : D:\torrents\Гроза (1933, ориг.ГФФ).avi
    Format : AVI
    Format/Info : Audio Video Interleave
    File size : 1.41 GiB
    Duration : 1h 20mn
    Overall bit rate : 2 518 Kbps
    Writing library : VirtualDub build 35576/release
    Video
    ID : 0
    Format : MPEG-4 Visual
    Format profile : Advanced Simple@L5
    Format settings, BVOP : Yes
    Format settings, QPel : No
    Format settings, GMC : No warppoints
    Format settings, Matrix : Default (H.263)
    Codec ID : XVID
    Codec ID/Hint : XviD
    Duration : 1h 20mn
    Bit rate : 2 380 Kbps
    Width : 720 pixels
    Height : 544 pixels
    Display aspect ratio : 4:3
    Frame rate : 25.000 fps
    Resolution : 8 bits
    Colorimetry : 4:2:0
    Scan type : Progressive
    Bits/(Pixel*Frame) : 0.243
    Stream size : 1.34 GiB (95%)
    Writing library : XviD 73
    Audio
    ID : 1
    Format : MPEG Audio
    Format version : Version 1
    Format profile : Layer 3
    Format_Settings_Mode : Joint stereo
    Codec ID : 55
    Codec ID/Hint : MP3
    Duration : 1h 20mn
    Bit rate mode : Constant
    Bit rate : 128 Kbps
    Channel(s) : 2 channels
    Sampling rate : 48.0 KHz
    Stream size : 73.5 MiB (5%)
    Alignment : Split accross interleaves
    Interleave, duration : 40 ms (1.00 video frame)
    Interleave, preload duration : 500 ms

    Скриншот с названием фильма

    Скриншоты

    Сравнение с раздачей от R.M.B 05-Декабря-2008

    R.M.B., 656 x 504, 1.15 Gb < > CaCa48, 720 х 544, 1.41 Gb
    http://perectracker.org/viewtopic.php?t=1318306
    http://screenshotcomparison.com/comparison/118902
    Скачать .torrent

    Скачать торрент-файл бесплатно и на максимальной скорости!

    Как скачивать? · Что такое торрент? · Рейтинг и ограничения

    !ВНИМАНИЕ!
    Сайт не распространяет и не хранит электронные версии произведений, а занимается лишь лишь предоставлением доступа к создаваемому пользователями каталогу ссылок на торрент-файлы, которые содержат только списки хеш-сумм, убедительная просьба с жалобами обращаться напрямую к пользователю. Файлы для обмена на трекере предоставлены пользователями сайта, и администрация не несёт ответственности за их содержание. Просьба не заливать файлы, защищенные авторскими правами, а также файлы нелегального содержания!


    _________________
    [Профиль] [ЛС]
    Показать сообщения:    
    Ответить на тему

    Текущее время: Сегодня, в 10:19

    Часовой пояс: GMT + 2



    Вы не можете начинать темы
    Вы не можете отвечать на сообщения
    Вы не можете редактировать свои сообщения
    Вы не можете удалять свои сообщения
    Вы не можете голосовать в опросах
    Вы не можете прикреплять файлы к сообщениям
    Вы не можете скачивать файлы