BitTorrentTracker PerecTracker.org
BitTorrentTracker PerecTracker.org
    
Регистрация  ·  Вход
 
 · 
Забыли пароль?

  • Враг государства / Enemy of the State (Тони Скотт) [1998, США, боевик, триллер, драма, BDRip HD (720p)] DUB, MVO,AVO, Original + SUB (rue, eng)

    Ответить на тему
     
    Автор Сообщение

    rechyn

    Создавать темы 30-Мар-2015 09:00

           

    [Цитировать]

    Враг государства / Enemy of the State
    "Государство знает всё о каждом. И может изменить судьбу любого из нас"
    7.943 / 10
    -Год выпуска: 1998
    Страна: США
    Жанр: боевик, триллер, драма
    Продолжительность: 140 мин.
    Перевод: Профессиональный дублированный перевод, многоголосый закадровый перевод и одноголосый закадровый авторский перевод
    Оригинальная аудиодорожка: Есть
    Cубтитры: Русские форсированные, русские полные, английские полные и английские полные SDH
    Режиссёр: Тони Скотт
    Сценарий: Дэвид Маркони
    Продюсер: Джерри Брукхаймер, Эндрю З. Дэвис, Чад Оман
    Оператор: Дэниэл Миндел
    Композитор: Гарри Грегсон-Уильямс, Тревор Рэбин
    Художник: Бенджамин Фернандез, Дженнифер А. Дэвис, Джеймс Дж. Мураками
    Монтаж: Крис Лебензон
    В ролях: Уилл Смит, Джин Хэкмен, Джон Войт, Лиза Боне, Реджина Кинг, Стюарт Уилсон, Лаура Кайот, Лорен Дин, Барри Пеппер, Иэн Харт
    Роли дублировали: Валерий Кухарешин, Вадим Яковлев, Александр Демьяненко, Евгения Игумнова, Николай Буров
    Бюджет: $90 000 000
    Сборы в США: $111 549 836
    Сборы в мире: + $139 100 000 = $250 649 836
    Мировая премьера: 16 ноября 1998
    Релиз на DVD: 18 июня 2009, Уолт Дисней Компани СНГ
    Описание: Каждое мгновение своей жизни человек находится на виду, даже когда он уверен, что его никто не видит. В руки преуспевающего адвоката Роберта Дина попала страшная улика, разоблачающая высокопоставленного чиновника. Но секретная служба узнала об этом раньше Роберта и немедленно приняла меры. В ход пошли самые новейшие технологии: в современном мире не нужно быть магом, чтобы изменить человеческую судьбу, - достаточно просто подойти к компьютеру. За считанные дни из законопослушного гражданина Дин превратился в опасного преступника, на которого была объявлена настоящая охота. Когда адвокат найдет союзников и передаст им таинственную улику, полетят многие головы... если до этого он не лишится своей...-Качество исходника: BD-Remux 1080p
    Качество: BDRip
    Тип: 720p
    Контейнер: m4v
    Видео: 1280х544 at 23.976 fps, MPEG-4 AVC, ~3700 kbps avg
    Аудио#1: Russian: 48 kHz, ААС, 2/0 (L,R), ~192.00 kbps avg |Дубляж|
    Аудио#2: Russian: 48 kHz, ААС, 2/0 (L,R), ~192.00 kbps avg |Многоголосый закадровый, ОРТ|
    Аудио#3: Russian: 48 kHz, ААС, 2/0 (L,R), ~192.00 kbps avg |Многоголосый закадровый, студия "Интер"|
    Аудио#4: Russian: 48 kHz, ААС, 2/0 (L,R), ~192.00 kbps avg |Одноголосый закадровый, А. Гаврилов|
    Аудио#5: Russian: 48 kHz, ААС, 2/0 (L,R), ~192.00 kbps avg |Одноголосый закадровый, Е. Гаевский|
    Аудио#6: Russian: 48 kHz, ААС, 2/0 (L,R), ~192.00 kbps avg |Одноголосый закадровый, Ю. Живов|
    Аудио#7: Ukrainian: 48 kHz, ААС, 2/0 (L,R), ~192.00 kbps avg |Многоголосый закадровый|
    Аудио#8: English: 48 kHz, ААС, 2/0 (L,R), ~192.00 kbps avg
    Аудио#9: Russian: 48 kHz, AC3, 3/2 (L,C,R,l,r) + LFE ch, ~384.00 kbps avg |Дубляж, iTunes Russia|
    Аудио#10: Russian: 48 kHz, AC3, 3/2 (L,C,R,l,r) + LFE ch, ~640.00 kbps avg |Многоголосый закадровый, студия "Интер"|
    Аудио#11: Russian: 48 kHz, AC3, 3/2 (L,C,R,l,r) + LFE ch, ~640.00 kbps avg |Одноголосый закадровый, А. Гаврилов|
    Аудио#12: Russian: 48 kHz, AC3, 3/2 (L,C,R,l,r) + LFE ch, ~640.00 kbps avg |Одноголосый закадровый, Е. Гаевский|
    Аудио#12: Russian: 48 kHz, AC3, 3/2 (L,C,R,l,r) + LFE ch, ~640.00 kbps avg |Одноголосый закадровый, Ю. Живов|
    Аудио#13: Ukrainian: 48 kHz, AC3, 3/2 (L,C,R,l,r) + LFE ch, ~640.00 kbps avg |Многоголосый закадровый|
    Аудио#14: English: 48 kHz, AC3, 3/2 (L,C,R,l,r) + LFE ch, ~640.00 kbps avg
    Субтитры №1: Russian: |Форсированные, iTunes Russia|
    Субтитры №2: Russian: |Полные, iTunes Russia|
    Субтитры №3: Russian: |Полные|
    Субтитры №4: English: |Полные|
    Субтитры №5: English: |Полные, SDH|-

    Знаете ли Вы, что...
  • В разное время на главную роль в фильме претендовали Том Круз и Мэл Гибсон.
  • В фильме фигурирует «глобальная система радиоэлектронной разведки» — Эшелон.
    -

    iTunes Meta Tags for country gb

    Name: Enemy of the State
    Artist: Tony Scott
    Genre: Thriller
    Release Date: 1998-11-16T08:00:00Z
    Description: Роковое стечение обстоятельств неожиданно наносит мощный удар по блестящей карьере и счастливой семейной жизни адвоката Роберта Дина: его обвиняют в убийстве, которого он не совершал. Дин понимает, что это связано с политическими интригами общенационального масштаба...
    Long Description: Каждое мгновение своей жизни человек находится на виду, даже когда он уверен, что его никто не видит. В руки преуспевающего адвоката Роберта Дина попала страшная улика, разоблачающая высокопоставленного чиновника. Но секретная служба узнала об этом раньше Роберта и немедленно приняла меры. В ход пошли самые новейшие технологии: в современном мире не нужно быть магом, чтобы изменить человеческую судьбу, - достаточно просто подойти к компьютеру. За считанные дни из законопослушного гражданина Дин превратился в опасного преступника, на которого была объявлена настоящая охота. Когда адвокат найдет союзников и передаст им таинственную улику, полетят многие головы... если до этого он не лишится своей...
    Rating: 15
    Studio: Touchstone Pictures
    Cast: Уилл Смит, Джин Хэкмен, Джон Войт, Лиза Боне, Реджина Кинг, Стюарт Уилсон, Лаура Кайот, Лорен Дин, Барри Пеппер, Иэн Харт
    Director: Тони Скотт
    Producers: Джерри Брукхаймер, Эндрю З. Дэвис, Чад Оман
    Screenwriters: Дэвид Маркони
    Copyright: © 1998 Touchstone Pictures
    contentID: 188764990
    XID: Apple:vendor_id:1998-3954
    Sort Name: Enemy of the State

    iTunes Meta Tags for country ru

    Name: Враг государства
    Artist: Tony Scott
    Genre: Thriller
    Release Date: 1998-11-16T08:00:00Z
    Description: Роковое стечение обстоятельств неожиданно наносит мощный удар по блестящей карьере и счастливой семейной жизни адвоката Роберта Дина: его обвиняют в убийстве, которого он не совершал. Дин понимает, что это связано с политическими интригами общенационального масштаба...
    Long Description: Каждое мгновение своей жизни человек находится на виду, даже когда он уверен, что его никто не видит. В руки преуспевающего адвоката Роберта Дина попала страшная улика, разоблачающая высокопоставленного чиновника. Но секретная служба узнала об этом раньше Роберта и немедленно приняла меры. В ход пошли самые новейшие технологии: в современном мире не нужно быть магом, чтобы изменить человеческую судьбу, - достаточно просто подойти к компьютеру. За считанные дни из законопослушного гражданина Дин превратился в опасного преступника, на которого была объявлена настоящая охота. Когда адвокат найдет союзников и передаст им таинственную улику, полетят многие головы... если до этого он не лишится своей...
    Rating: 16+
    Rating Annotation: Rated 16+ Для зрителей, достигших возраста 16 лет
    Studio: Touchstone Pictures
    Cast: Уилл Смит, Джин Хэкмен, Джон Войт, Лиза Боне, Реджина Кинг, Стюарт Уилсон, Лаура Кайот, Лорен Дин, Барри Пеппер, Иэн Харт
    Director: Тони Скотт
    Producers: Джерри Брукхаймер, Эндрю З. Дэвис, Чад Оман
    Screenwriters: Дэвид Маркони
    contentID: 188764990
    XID: Apple:vendor_id:1998-3954
    Sort Name: Враг государства

    MediaInfo 720p Release

    General
    Complete name : Enemy of the State (HD).m4v
    Format : MPEG-4
    Codec ID : M4V
    File size : 8.76 GiB
    Duration : 2h 12mn
    Overall bit rate mode : Variable
    Overall bit rate : 9 487 Kbps
    Movie name : Enemy of the State
    Performer : Tony Scott
    Genre : Thriller
    ContentType : Short Film
    Description : Роковое стечение обстоятельств неожиданно наносит мощный удар по блестящей карьере и счастливой семейной жизни адвоката Роберта Дина: его обвиняют в убийстве, которого он не совершал. Дин понимает, что это связано с политическими интригами общенационального масштаба...
    Recorded date : UTC 1998-11-16 08:00:00
    Encoded date : UTC 2015-03-29 09:25:16
    Tagged date : UTC 2015-03-29 11:32:45
    Copyright : © 1998 Touchstone Pictures
    Cover : Yes
    Rating : None
    Title/Sort : Enemy of the State
    LongDescription : Каждое мгновение своей жизни человек находится на виду, даже когда он уверен, что его никто не видит. В руки преуспевающего адвоката Роберта Дина попала страшная улика, разоблачающая высокопоставленного чиновника. Но секретная служба узнала об этом раньше Роберта и немедленно приняла меры. В ход пошли самые новейшие технологии: в современном мире не нужно быть магом, чтобы изменить человеческую судьбу, - достаточно просто подойти к компьютеру. За считанные дни из законопослушного гражданина Дин превратился в опасного преступника, на которого была объявлена настоящая охота. Когда адвокат найдет союзников и передаст им таинственную улику, полетят многие головы... если до этого он не лишится своей...
    HDVideo : Yes
    AppleStoreCatalogID : 188764990
    Vendor : Apple:vendor_id:1998-3954
    ContentRating : uk-movie|15|350|
    iTunMOVI : <?xml version="1.0" encoding="UTF-8"?> / <!DOCTYPE plist PUBLIC "-//Apple//DTD PLIST 1.0//EN" "http://anonym.to/?http://www.apple.com/DTDs/PropertyList-1.0.dtd"> / <plist version="1.0"> / <dict> /  <key>cast</key> /  <array> /   <dict> /    <key>name</key> /    <string>Уилл Смит</string> /   </dict> /   <dict> /    <key>name</key> /    <string>Джин Хэкмен</string> /   </dict> /   <dict> /    <key>name</key> /    <string>Джон Войт</string> /   </dict> /   <dict> /    <key>name</key> /    <string>Лиза Боне</string> /   </dict> /   <dict> /    <key>name</key> /    <string>Реджина Кинг</string> /   </dict> /   <dict> /    <key>name</key> /    <string>Стюарт Уилсон</string> /   </dict> /   <dict> /    <key>name</key> /    <string>Лаура Кайот</string> /   </dict> /   <dict> /    <key>name</key> /    <string>Лорен Дин</string> /   </dict> /   <dict> /    <key>name</key> /    <string>Барри Пеппер</string> /   </dict> /   <dict> /    <key>name</key> /    <string>Иэн Харт</string> /   </dict> /  </array> /  <key>directors</key> /  <array> /   <dict> /    <key>name</key> /    <string>Тони Скотт</string> /   </dict> /  </array> /  <key>producers</key> /  <array> /   <dict> /    <key>name</key> /    <string>Джерри Брукхаймер</string> /   </dict> /   <dict> /    <key>name</key> /    <string>Эндрю З. Дэвис</string> /   </dict> /   <dict> /    <key>name</key> /    <string>Чад Оман</string> /   </dict> /  </array> /  <key>screenwriters</key> /  <array> /   <dict> /    <key>name</key> /    <string>Дэвид Маркони</string> /   </dict> /  </array> /  <key>studio</key> /  <string>Touchstone Pictures</string> / </dict> / </plist>
    Video #1
    ID : 1
    Format : AVC
    Format/Info : Advanced Video Codec
    Format profile : High@L3.1
    Format settings, CABAC : No
    Format settings, ReFrames : 3 frames
    Codec ID : avc1
    Codec ID/Info : Advanced Video Coding
    Duration : 2h 12mn
    Source duration : 2h 12mn
    Bit rate : 3 700 Kbps
    Width : 1 280 pixels
    Height : 544 pixels
    Display aspect ratio : 2.35:1
    Frame rate mode : Variable
    Frame rate : 23.976 fps
    Minimum frame rate : 23.974 fps
    Maximum frame rate : 23.981 fps
    Color space : YUV
    Chroma subsampling : 4:2:0
    Bit depth : 8 bits
    Scan type : Progressive
    Bits/(Pixel*Frame) : 0.222
    Stream size : 3.41 GiB (39%)
    Source stream size : 3.41 GiB (39%)
    Writing library : x264 core 100 r1659 57b2e56
    Encoding settings : cabac=0 / ref=3 / deblock=1:0:0 / analyse=0x3:0x113 / me=umh / subme=7 / psy=1 / psy_rd=1.00:0.00 / mixed_ref=1 / me_range=16 / chroma_me=1 / trellis=0 / 8x8dct=1 / cqm=0 / deadzone=21,11 / fast_pskip=0 / chroma_qp_offset=-2 / threads=3 / sliced_threads=0 / nr=0 / decimate=0 / interlaced=0 / constrained_intra=0 / bframes=3 / b_pyramid=0 / b_adapt=2 / b_bias=0 / direct=3 / weightb=0 / open_gop=0 / weightp=0 / keyint=240 / keyint_min=24 / scenecut=40 / intra_refresh=0 / rc_lookahead=40 / rc=2pass / mbtree=1 / bitrate=3700 / ratetol=1.0 / qcomp=0.60 / qpmin=10 / qpmax=51 / qpstep=4 / cplxblur=20.0 / qblur=0.5 / vbv_maxrate=9500 / vbv_bufsize=9500 / ip_ratio=1.40 / aq=1:1.00 / nal_hrd=none
    Language : English
    Encoded date : UTC 2015-03-29 09:25:16
    Tagged date : UTC 2015-03-29 09:31:43
    Color primaries : BT.709
    Transfer characteristics : BT.709
    Matrix coefficients : BT.709
    Video #2
    ID : 23
    Format : JPEG
    Codec ID : jpeg
    Duration : 2h 12mn
    Bit rate mode : Variable
    Bit rate : 1 322 bps
    Width : 640 pixels
    Height : 272 pixels
    Display aspect ratio : 2.35:1
    Frame rate mode : Variable
    Frame rate : 0.004 fps
    Minimum frame rate : 0.002 fps
    Maximum frame rate : 1.332 fps
    Color space : YUV
    Chroma subsampling : 4:2:0
    Bit depth : 8 bits
    Compression mode : Lossy
    Bits/(Pixel*Frame) : 1.899
    Stream size : 1.18 MiB (0%)
    Language : English
    Encoded date : UTC 2015-03-29 11:32:07
    Tagged date : UTC 2015-03-29 11:32:07
    Audio #1
    ID : 2
    Format : AAC
    Format/Info : Advanced Audio Codec
    Format profile : LC
    Codec ID : 40
    Duration : 2h 12mn
    Bit rate mode : Variable
    Bit rate : 197 Kbps
    Maximum bit rate : 337 Kbps
    Channel(s) : 2 channels
    Channel positions : Front: L R
    Sampling rate : 48.0 KHz
    Compression mode : Lossy
    Stream size : 186 MiB (2%)
    Language : Russian
    Encoded date : UTC 2015-03-29 09:25:16
    Tagged date : UTC 2015-03-29 09:33:23
    Audio #2
    ID : 3
    Format : AAC
    Format/Info : Advanced Audio Codec
    Format profile : LC
    Codec ID : 40
    Duration : 2h 12mn
    Bit rate mode : Variable
    Bit rate : 148 Kbps
    Maximum bit rate : 239 Kbps
    Channel(s) : 2 channels
    Channel positions : Front: L R
    Sampling rate : 48.0 KHz
    Compression mode : Lossy
    Stream size : 140 MiB (2%)
    Language : Russian
    Encoded date : UTC 2015-03-29 09:37:50
    Tagged date : UTC 2015-03-29 09:38:35
    Audio #3
    ID : 4
    Format : AAC
    Format/Info : Advanced Audio Codec
    Format profile : LC
    Codec ID : 40
    Duration : 2h 12mn
    Bit rate mode : Variable
    Bit rate : 199 Kbps
    Maximum bit rate : 329 Kbps
    Channel(s) : 2 channels
    Channel positions : Front: L R
    Sampling rate : 48.0 KHz
    Compression mode : Lossy
    Stream size : 188 MiB (2%)
    Language : Russian
    Encoded date : UTC 2015-03-29 10:00:34
    Tagged date : UTC 2015-03-29 10:01:03
    Audio #4
    ID : 5
    Format : AAC
    Format/Info : Advanced Audio Codec
    Format profile : LC
    Codec ID : 40
    Duration : 2h 12mn
    Bit rate mode : Variable
    Bit rate : 200 Kbps
    Maximum bit rate : 298 Kbps
    Channel(s) : 2 channels
    Channel positions : Front: L R
    Sampling rate : 48.0 KHz
    Compression mode : Lossy
    Stream size : 189 MiB (2%)
    Language : Russian
    Encoded date : UTC 2015-03-29 10:01:41
    Tagged date : UTC 2015-03-29 10:06:44
    Audio #5
    ID : 6
    Format : AAC
    Format/Info : Advanced Audio Codec
    Format profile : LC
    Codec ID : 40
    Duration : 2h 12mn
    Bit rate mode : Variable
    Bit rate : 199 Kbps
    Maximum bit rate : 318 Kbps
    Channel(s) : 2 channels
    Channel positions : Front: L R
    Sampling rate : 48.0 KHz
    Compression mode : Lossy
    Stream size : 188 MiB (2%)
    Language : Russian
    Encoded date : UTC 2015-03-29 10:01:41
    Tagged date : UTC 2015-03-29 10:06:43
    Audio #6
    ID : 7
    Format : AAC
    Format/Info : Advanced Audio Codec
    Format profile : LC
    Codec ID : 40
    Duration : 2h 12mn
    Bit rate mode : Variable
    Bit rate : 199 Kbps
    Maximum bit rate : 329 Kbps
    Channel(s) : 2 channels
    Channel positions : Front: L R
    Sampling rate : 48.0 KHz
    Compression mode : Lossy
    Stream size : 189 MiB (2%)
    Language : Russian
    Encoded date : UTC 2015-03-29 10:01:41
    Tagged date : UTC 2015-03-29 10:06:43
    Audio #7
    ID : 8
    Format : AAC
    Format/Info : Advanced Audio Codec
    Format profile : LC
    Codec ID : 40
    Duration : 2h 12mn
    Bit rate mode : Variable
    Bit rate : 198 Kbps
    Maximum bit rate : 326 Kbps
    Channel(s) : 2 channels
    Channel positions : Front: L R
    Sampling rate : 48.0 KHz
    Compression mode : Lossy
    Stream size : 187 MiB (2%)
    Language : Ukrainian
    Encoded date : UTC 2015-03-29 10:46:16
    Tagged date : UTC 2015-03-29 10:47:08
    Audio #8
    ID : 9
    Format : AAC
    Format/Info : Advanced Audio Codec
    Format profile : LC
    Codec ID : 40
    Duration : 2h 12mn
    Bit rate mode : Variable
    Bit rate : 200 Kbps
    Maximum bit rate : 321 Kbps
    Channel(s) : 2 channels
    Channel positions : Front: L R
    Sampling rate : 48.0 KHz
    Compression mode : Lossy
    Stream size : 189 MiB (2%)
    Language : English
    Encoded date : UTC 2015-03-29 10:47:49
    Tagged date : UTC 2015-03-29 10:48:13
    Audio #9
    ID : 10
    Format : AC-3
    Format/Info : Audio Coding 3
    Mode extension : CM (complete main)
    Format settings, Endianness : Big
    Codec ID : ac-3
    Duration : 2h 12mn
    Bit rate mode : Constant
    Bit rate : 384 Kbps
    Channel(s) : 6 channels
    Channel positions : Front: L C R, Side: L R, LFE
    Sampling rate : 48.0 KHz
    Bit depth : 16 bits
    Compression mode : Lossy
    Stream size : 363 MiB (4%)
    Language : Russian
    Encoded date : UTC 2015-03-29 10:48:37
    Tagged date : UTC 2015-03-29 10:49:07
    Audio #10
    ID : 11
    Format : AC-3
    Format/Info : Audio Coding 3
    Mode extension : CM (complete main)
    Format settings, Endianness : Big
    Codec ID : ac-3
    Duration : 2h 12mn
    Bit rate mode : Constant
    Bit rate : 640 Kbps
    Channel(s) : 6 channels
    Channel positions : Front: L C R, Side: L R, LFE
    Sampling rate : 48.0 KHz
    Bit depth : 16 bits
    Compression mode : Lossy
    Stream size : 605 MiB (7%)
    Language : Russian
    Encoded date : UTC 2015-03-29 10:53:03
    Tagged date : UTC 2015-03-29 10:58:42
    Audio #11
    ID : 12
    Format : AC-3
    Format/Info : Audio Coding 3
    Mode extension : CM (complete main)
    Format settings, Endianness : Big
    Codec ID : ac-3
    Duration : 2h 12mn
    Bit rate mode : Constant
    Bit rate : 640 Kbps
    Channel(s) : 6 channels
    Channel positions : Front: L C R, Side: L R, LFE
    Sampling rate : 48.0 KHz
    Bit depth : 16 bits
    Compression mode : Lossy
    Stream size : 605 MiB (7%)
    Language : Russian
    Encoded date : UTC 2015-03-29 10:53:03
    Tagged date : UTC 2015-03-29 10:58:42
    Audio #12
    ID : 13
    Format : AC-3
    Format/Info : Audio Coding 3
    Mode extension : CM (complete main)
    Format settings, Endianness : Big
    Codec ID : ac-3
    Duration : 2h 12mn
    Bit rate mode : Constant
    Bit rate : 640 Kbps
    Channel(s) : 6 channels
    Channel positions : Front: L C R, Side: L R, LFE
    Sampling rate : 48.0 KHz
    Bit depth : 16 bits
    Compression mode : Lossy
    Stream size : 605 MiB (7%)
    Language : Russian
    Encoded date : UTC 2015-03-29 10:53:03
    Tagged date : UTC 2015-03-29 10:58:42
    Audio #13
    ID : 14
    Format : AC-3
    Format/Info : Audio Coding 3
    Mode extension : CM (complete main)
    Format settings, Endianness : Big
    Codec ID : ac-3
    Duration : 2h 12mn
    Bit rate mode : Constant
    Bit rate : 640 Kbps
    Channel(s) : 6 channels
    Channel positions : Front: L C R, Side: L R, LFE
    Sampling rate : 48.0 KHz
    Bit depth : 16 bits
    Compression mode : Lossy
    Stream size : 605 MiB (7%)
    Language : Russian
    Encoded date : UTC 2015-03-29 10:53:03
    Tagged date : UTC 2015-03-29 10:58:42
    Audio #14
    ID : 15
    Format : AC-3
    Format/Info : Audio Coding 3
    Mode extension : CM (complete main)
    Format settings, Endianness : Big
    Codec ID : ac-3
    Duration : 2h 12mn
    Bit rate mode : Constant
    Bit rate : 640 Kbps
    Channel(s) : 6 channels
    Channel positions : Front: L C R, Side: L R, LFE
    Sampling rate : 48.0 KHz
    Bit depth : 16 bits
    Compression mode : Lossy
    Stream size : 605 MiB (7%)
    Language : Ukrainian
    Encoded date : UTC 2015-03-29 10:53:03
    Tagged date : UTC 2015-03-29 10:58:42
    Audio #15
    ID : 16
    Format : AC-3
    Format/Info : Audio Coding 3
    Mode extension : CM (complete main)
    Format settings, Endianness : Big
    Codec ID : ac-3
    Duration : 2h 12mn
    Bit rate mode : Constant
    Bit rate : 640 Kbps
    Channel(s) : 6 channels
    Channel positions : Front: L C R, Side: L R, LFE
    Sampling rate : 48.0 KHz
    Bit depth : 16 bits
    Compression mode : Lossy
    Stream size : 605 MiB (7%)
    Language : English
    Encoded date : UTC 2015-03-29 10:53:03
    Tagged date : UTC 2015-03-29 10:58:42
    Text #1
    ID : 17
    Format : Timed Text
    Muxing mode : sbtl
    Codec ID : tx3g
    Duration : 2h 5mn
    Bit rate mode : Variable
    Bit rate : 2 bps
    Stream size : 1.75 KiB (0%)
    Language : Russian
    Encoded date : UTC 2015-03-29 10:53:03
    Tagged date : UTC 2015-03-29 10:53:03
    Text #2
    ID : 18
    Format : Timed Text
    Muxing mode : sbtl
    Codec ID : tx3g
    Duration : 2h 6mn
    Bit rate mode : Variable
    Bit rate : 113 bps
    Stream size : 105 KiB (0%)
    Language : Russian
    Encoded date : UTC 2015-03-29 10:53:03
    Tagged date : UTC 2015-03-29 10:53:03
    Text #3
    ID : 19
    Format : Timed Text
    Muxing mode : sbtl
    Codec ID : tx3g
    Duration : 2h 6mn
    Bit rate mode : Variable
    Bit rate : 119 bps
    Stream size : 110 KiB (0%)
    Language : Russian
    Encoded date : UTC 2015-03-29 10:53:03
    Tagged date : UTC 2015-03-29 10:53:03
    Text #4
    ID : 20
    Format : Timed Text
    Muxing mode : sbtl
    Codec ID : tx3g
    Duration : 2h 6mn
    Bit rate mode : Variable
    Bit rate : 81 bps
    Stream size : 75.2 KiB (0%)
    Language : English
    Encoded date : UTC 2015-03-29 10:53:03
    Tagged date : UTC 2015-03-29 10:53:03
    Text #5
    ID : 21
    Format : Timed Text
    Muxing mode : sbtl
    Codec ID : tx3g
    Duration : 2h 6mn
    Bit rate mode : Variable
    Bit rate : 84 bps
    Stream size : 78.0 KiB (0%)
    Language : English
    Encoded date : UTC 2015-03-29 10:53:03
    Tagged date : UTC 2015-03-29 10:53:03
    Menu #1
    00:00:00.000 : Program Start
    00:00:48.590 : Eliminating Opposition
    00:04:26.432 : Opening Credits
    00:06:20.046 : Taking On the Mob
    00:09:59.515 : A Visit with Pintero
    00:14:15.980 : A Problem at the Lake
    00:18:18.097 : Zavitz's Tape
    00:22:11.204 : Rabbit on the Run
    00:31:26.342 : Dean's Profile
    00:35:38.094 : Unexpected Visitors
    00:38:22.133 : Getting into Dean's Life
    00:44:01.889 : Dean's Life in Shambles
    00:51:21.495 : Conversation with Rachel
    00:56:12.786 : A Rough Cab Ride
    00:59:06.793 : Brill
    01:03:56.666 : Moving Target
    01:09:19.113 : Tunnel Vision
    01:13:39.790 : Winning Carla Over
    01:20:34.079 : The Setup
    01:27:34.415 : The Jar
    01:33:12.086 : Time Bomb
    01:38:21.937 : Edward Lyle
    01:41:59.905 : Turning the Tables
    01:49:02.202 : A Call from Brill
    01:50:24.868 : "Let the Games Begin"
    01:54:11.803 : Getting the Tape Back
    01:55:45.563 : Dean's Plan
    02:03:54.969 : Wrap-Up
    02:06:45.889 : End Credits
    02:12:10.213 : Program End
    Menu #2
    ID : 22
    Codec ID : text
    Duration : 2h 12mn
    Language : English
    Encoded date : UTC 2015-03-29 11:31:58
    Tagged date : UTC 2015-03-29 11:31:58
    00:00:00.000 : Program Start
    00:00:48.590 : Eliminating Opposition
    00:04:26.432 : Opening Credits
    00:06:20.046 : Taking On the Mob
    00:09:59.515 : A Visit with Pintero
    00:14:15.980 : A Problem at the Lake
    00:18:18.097 : Zavitz's Tape
    00:22:11.204 : Rabbit on the Run
    00:31:26.342 : Dean's Profile
    00:35:38.094 : Unexpected Visitors
    00:38:22.133 : Getting into Dean's Life
    00:44:01.889 : Dean's Life in Shambles
    00:51:21.495 : Conversation with Rachel
    00:56:12.786 : A Rough Cab Ride
    00:59:06.793 : Brill
    01:03:56.666 : Moving Target
    01:09:19.113 : Tunnel Vision
    01:13:39.790 : Winning Carla Over
    01:20:34.079 : The Setup
    01:27:34.415 : The Jar
    01:33:12.086 : Time Bomb
    01:38:21.937 : Edward Lyle
    01:41:59.905 : Turning the Tables
    01:49:02.202 : A Call from Brill
    01:50:24.868 : "Let the Games Begin"
    01:54:11.803 : Getting the Tape Back
    01:55:45.563 : Dean's Plan
    02:03:54.969 : Wrap-Up
    02:06:45.889 : End Credits
    02:12:10.213 : Program End
    Bit rate mode : VBR

    x264 лог 720p Release

    x264 [info]: frame I:2892  Avg QP:16.80  size: 65799  PSNR Mean Y:47.47 U:49.81 V:51.69 Avg:48.19 Global:47.85
    x264 [info]: frame P:66986 Avg QP:18.63  size: 31602  PSNR Mean Y:45.76 U:49.54 V:51.72 Avg:46.59 Global:46.04
    x264 [info]: frame B:120276 Avg QP:20.49  size: 11263  PSNR Mean Y:44.26 U:49.06 V:51.71 Avg:45.20 Global:44.76
    x264 [info]: consecutive B-frames:  3.2% 18.7% 44.7% 33.4%
    x264 [info]: mb I  I16..4: 10.5% 60.8% 28.8%
    x264 [info]: mb P  I16..4:  3.5% 11.5%  4.0%  P16..4: 44.8% 22.2%  8.5%  0.0%  0.0%    skip: 5.4%
    x264 [info]: mb B  I16..4:  0.3%  2.1%  0.6%  B16..8: 46.9% 11.4%  1.4%  direct: 7.0%  skip:30.3%  L0:40.3% L1:51.3% BI: 8.3%
    x264 [info]: 8x8 transform intra:61.9% inter:53.7%
    x264 [info]: direct mvs  spatial:99.4% temporal:0.6%
    x264 [info]: coded y,uvDC,uvAC intra: 78.6% 82.7% 58.3% inter: 27.5% 32.5% 13.5%
    x264 [info]: i16 v,h,dc,p: 46% 16%  5% 33%
    x264 [info]: i8 v,h,dc,ddl,ddr,vr,hd,vl,hu: 15% 17% 20%  6%  9%  8%  9%  8%  9%
    x264 [info]: i4 v,h,dc,ddl,ddr,vr,hd,vl,hu: 19% 24% 13%  6%  9%  8%  9%  6%  6%
    x264 [info]: i8c dc,h,v,p: 52% 20% 19%  9%
    x264 [info]: ref P L0: 71.1% 17.7% 11.2%
    x264 [info]: ref B L0: 79.7% 20.3%
    x264 [info]: SSIM Mean Y:0.9815205 (17.333db)
    x264 [info]: PSNR Mean Y:44.835 U:49.242 V:51.716 Avg:45.734 Global:45.206 kb/s:3693.74

    Скриншоты 720p Release

    Цитата:
    Цитата:

    • За основу взято видео, которое кодировал ovsyannikov.ivan 4 года назад, и его я не перекодировал;
    • Все звуковые дороги и субтитры для этой раздачи сделаны с нуля и взяты с BDRip 720p. За них отдельное спасибо Skazhutin;
    • Русский дубляж в формате AC-3, русские форсированные и русские полные субтитры взяты из раздачи. Спасибо spartanec163 за покупку WEB-DL в iTunes Russia;
    • Этот релиз для Вас полностью подготовил apple_monster.
    -

    Релиз подготовлен для просмотра на Apple TV, iPad, iPhone, iPod Touch.
    Для просмотра данного релиза на компьютере с ОС Windows рекомендуется использовать VLC media player
    Скачать .torrent

    Скачать торрент-файл бесплатно и на максимальной скорости!

    Как скачивать? · Что такое торрент? · Рейтинг и ограничения

    !ВНИМАНИЕ!
    Сайт не распространяет и не хранит электронные версии произведений, а занимается лишь лишь предоставлением доступа к создаваемому пользователями каталогу ссылок на торрент-файлы, которые содержат только списки хеш-сумм, убедительная просьба с жалобами обращаться напрямую к пользователю. Файлы для обмена на трекере предоставлены пользователями сайта, и администрация не несёт ответственности за их содержание. Просьба не заливать файлы, защищенные авторскими правами, а также файлы нелегального содержания!


  • _________________
    [Профиль] [ЛС]
    Показать сообщения:    
    Ответить на тему

    Текущее время: Сегодня, в 03:12

    Часовой пояс: GMT + 2



    Вы не можете начинать темы
    Вы не можете отвечать на сообщения
    Вы не можете редактировать свои сообщения
    Вы не можете удалять свои сообщения
    Вы не можете голосовать в опросах
    Вы не можете прикреплять файлы к сообщениям
    Вы не можете скачивать файлы