BitTorrentTracker PerecTracker.org
BitTorrentTracker PerecTracker.org
    
Регистрация  ·  Вход
 
 · 
Забыли пароль?

  • Меню в 3Д / Feast 3D (Патрик Осборн / Patrick Osborne) [2014, Мультфильм, Короткометражка, Мелодрама, Комедия, Семейный, BDrip-AVC] Half OverUnder / Вертикальная анаморфная стереопара

    Ответить на тему
     
    Автор Сообщение

    Flirldrerve

    Создавать темы 30-Мар-2015 09:00

           

    [Цитировать]

    Меню
    Feast

    Год выпуска: 2014
    Страна: США (Walt Disney Animation Studios)
    Жанр: Мультфильм, Короткометражка, Мелодрама, Комедия, Семейный
    Продолжительность: 00:06:24
    Перевод: Профессиональный дублированный
    Режиссер: Патрик Осборн / Patrick Osborne-Роли озвучивали: Бен Бледсо, Стюарт Ливайн, Кэти Лоус, Брэндон Скотт, Адам Шапиро, Томми Снайдер
    Роли дублировали: Андрей Аверков, Аделя Любская, Михаил Хрусталёв, Екатерина Кабашова, Юрий Красиков, Алексей Солдатов-Описание: История любви из жизни одного человека глазами его лучшего друга, собаки по имени Винстон, показанная через еду, которую они делят.-Премьера (мир): 10 июня 2014
    ..
    За исходный BD 3D Remux спасибо S.V.O.!
    -Качество: BDRip (by Ash61)
    Контейнер: MKV
    Формат 3D: Half OverUnder / Вертикальная анаморфная стереопара
    Порядок ракурсов: левый ракурс первый-Видео: AVC / 23,976 fps / 1920х1080p / 10.5 Mbps
    Аудио:
    #1 - Русский / AC3 / 48 KHz / 5.1 ch / 640 Kbps (Дубляж - BD 3D)
    #2 - Английский / AC3 / 48 KHz / 5.1 ch / 640 Kbps (Original - BD 2D)
    Субтитры: Отсутствуют

    MediaInfo

    General
    Unique ID : 187609584941960545991382771913252656176 (0x8D244AB016563392B06B71936627D430)
    Complete name : E:\Feast(2014)3D-halfOU(Ash61).mkv
    Format : Matroska
    Format version : Version 2
    File size : 548 MiB
    Duration : 6mn 23s
    Overall bit rate : 12.0 Mbps
    Encoded date : UTC 2015-03-18 19:35:38
    Writing application : mkvmerge v5.8.0 ('No Sleep / Pillow') built on Sep 2 2012 15:37:04
    Writing library : libebml v1.2.3 + libmatroska v1.3.0
    Video
    ID : 1
    Format : AVC
    Format/Info : Advanced Video Codec
    Format profile : High@L4.1
    Format settings, CABAC : Yes
    Format settings, ReFrames : 4 frames
    Codec ID : V_MPEG4/ISO/AVC
    Duration : 6mn 23s
    Bit rate : 10.5 Mbps
    Width : 1 920 pixels
    Height : 1 080 pixels
    Display aspect ratio : 16:9
    Frame rate mode : Constant
    Frame rate : 23.976 fps
    Color space : YUV
    Chroma subsampling : 4:2:0
    Bit depth : 8 bits
    Scan type : Progressive
    Bits/(Pixel*Frame) : 0.210
    Stream size : 479 MiB (87%)
    Title : BDRip by Ash61
    Writing library : x264 core 138 r2358 9e941d1
    Encoding settings : cabac=1 / ref=4 / deblock=1:-3:-3 / analyse=0x3:0x113 / me=umh / subme=10 / psy=1 / psy_rd=1.00:0.00 / mixed_ref=1 / me_range=32 / chroma_me=1 / trellis=2 / 8x8dct=1 / cqm=0 / deadzone=21,11 / fast_pskip=1 / chroma_qp_offset=-2 / threads=12 / lookahead_threads=3 / sliced_threads=0 / nr=0 / decimate=1 / interlaced=0 / bluray_compat=0 / constrained_intra=0 / bframes=11 / b_pyramid=2 / b_adapt=2 / b_bias=0 / direct=3 / weightb=1 / open_gop=0 / weightp=2 / keyint=250 / keyint_min=23 / scenecut=40 / intra_refresh=0 / rc_lookahead=60 / rc=crf / mbtree=1 / crf=17.0 / qcomp=0.70 / qpmin=0 / qpmax=69 / qpstep=4 / vbv_maxrate=40000 / vbv_bufsize=30000 / crf_max=0.0 / nal_hrd=none / frame-packing=4 / ip_ratio=1.40 / aq=1:0.70
    Language : English
    Default : Yes
    Forced : No
    Audio #1
    ID : 2
    Format : AC-3
    Format/Info : Audio Coding 3
    Mode extension : CM (complete main)
    Format settings, Endianness : Big
    Codec ID : A_AC3
    Duration : 6mn 23s
    Bit rate mode : Constant
    Bit rate : 640 Kbps
    Channel(s) : 6 channels
    Channel positions : Front: L C R, Side: L R, LFE
    Sampling rate : 48.0 KHz
    Bit depth : 16 bits
    Compression mode : Lossy
    Stream size : 29.3 MiB (5%)
    Title : Дубляж - BD 3D
    Language : Russian
    Default : Yes
    Forced : No
    Audio #2
    ID : 3
    Format : AC-3
    Format/Info : Audio Coding 3
    Mode extension : CM (complete main)
    Format settings, Endianness : Big
    Codec ID : A_AC3
    Duration : 6mn 23s
    Bit rate mode : Constant
    Bit rate : 640 Kbps
    Channel(s) : 6 channels
    Channel positions : Front: L C R, Side: L R, LFE
    Sampling rate : 48.0 KHz
    Bit depth : 16 bits
    Compression mode : Lossy
    Stream size : 29.3 MiB (5%)
    Title : Original
    Language : English
    Default : No
    Forced : No

    Скриншоты

    Для оценки 3Д - Анимированные скрины





    Награды

    Оскар, 2015 год
    Победитель (1):
    Лучший короткометражный анимационный фильм
    Скачать .torrent

    Скачать торрент-файл бесплатно и на максимальной скорости!

    Как скачивать? · Что такое торрент? · Рейтинг и ограничения

    !ВНИМАНИЕ!
    Сайт не распространяет и не хранит электронные версии произведений, а занимается лишь лишь предоставлением доступа к создаваемому пользователями каталогу ссылок на торрент-файлы, которые содержат только списки хеш-сумм, убедительная просьба с жалобами обращаться напрямую к пользователю. Файлы для обмена на трекере предоставлены пользователями сайта, и администрация не несёт ответственности за их содержание. Просьба не заливать файлы, защищенные авторскими правами, а также файлы нелегального содержания!


    _________________
    [Профиль] [ЛС]
    Показать сообщения:    
    Ответить на тему

    Текущее время: Сегодня, в 18:09

    Часовой пояс: GMT + 2



    Вы не можете начинать темы
    Вы не можете отвечать на сообщения
    Вы не можете редактировать свои сообщения
    Вы не можете удалять свои сообщения
    Вы не можете голосовать в опросах
    Вы не можете прикреплять файлы к сообщениям
    Вы не можете скачивать файлы