BitTorrentTracker PerecTracker.org
BitTorrentTracker PerecTracker.org
    
Регистрация  ·  Вход
 
 · 
Забыли пароль?

  • Металлистка / Málmhaus / Metalhead (Рагнар Брагасон / Ragnar Bragason) [2013, Исландия, драма, DVDRip] VO (Fatumovich) + VO (PashaUP) + Sub Rus, Swe + Original

    Ответить на тему
     
    Автор Сообщение

    Light

    Создавать темы 30-Мар-2015 09:00

           

    [Цитировать]

    Металлистка / Málmhaus / Metalhead-Страна: Исландия
    Жанр: драма
    Год выпуска: 2013
    Продолжительность: 01:36:08
    Перевод 1: Одноголосый закадровый Fatumovich
    Перевод 2: Одноголосый закадровый PashaUP
    Cубтитры: русские (Елена Володина), шведские
    Оригинальная аудиодорожка: исландская
    Режиссер: Рагнар Брагасон / Ragnar Bragason
    В ролях: Торбьёрг Хельга Торгильсдоуттир, Ингвар Эггерт Сигурдссон, Халльдоура Гейрхардсдоуттир, Свейнн Оулавюр Гуннарссон, Трёстур Лео Гуннарссон, Пьетур Эйнарссон, Магнус Оулафссон, Уле Эрик Фуру, Ханнес Оули Аугустссон
    Описание: После трагической гибели сына в семье Карла (Ингвар Эггерт Сигурдссон) и его жены Дроплауг (Халльдоура Гейрхардсдоуттир) наступают нелегкие времена. Мать запирается в себе, отец притворяется, будто ничего не произошло, а дочь Гера (Торбьёрг Хельга Торгильсдоуттир), окруженная плакатами рок-кумиров ушедшего брата, темными вечерами льёт слезы. Однажды в его комнате сестра находит одинокую гитару, перебирает струны, и жизнь делает новый аккорд — Гера становится металлисткой... Драма Рагнара Брагасона «Металлистка» затрагивает важные вопросы: как не позволить скорби поглотить тебя без остатка и как жить дальше?- -
    Качество видео: DVDRip
    Формат видео: AVI
    Видео: 720x304 (2.37:1), 25 fps, XviD build 50 ~1968 kbps avg, 0.36 bit/pixel
    Аудио 1: MP3 44100Hz stereo 192kbps
    Аудио 2: MP3 44100Hz stereo 192kbps
    Аудио 3: Dolby AC3 48000Hz 6ch 448kbps
    Формат субтитров: softsub (SRT)

    MediaInfo

    General
    Complete name : S:\Иностранные фильмы\Металлистка (Malmhaus, Iceland) (2013)\Malmhaus.avi
    Format : AVI
    Format/Info : Audio Video Interleave
    Format profile : OpenDML
    File size : 2.07 GiB
    Duration : 1h 36mn
    Overall bit rate : 3 086 Kbps
    Writing application : VirtualDubMod 1.5.10.2 (build 2540/release)
    Writing library : VirtualDubMod build 2540/release
    Video
    ID : 0
    Format : MPEG-4 Visual
    Format profile : Advanced Simple@L5
    Format settings, BVOP : Yes
    Format settings, QPel : No
    Format settings, GMC : No warppoints
    Format settings, Matrix : Default (H.263)
    Codec ID : XVID
    Codec ID/Hint : XviD
    Duration : 1h 36mn
    Bit rate : 2 229 Kbps
    Width : 720 pixels
    Height : 304 pixels
    Display aspect ratio : 2.35:1
    Frame rate : 25.000 fps
    Color space : YUV
    Chroma subsampling : 4:2:0
    Bit depth : 8 bits
    Scan type : Progressive
    Compression mode : Lossy
    Bits/(Pixel*Frame) : 0.407
    Stream size : 1.50 GiB (72%)
    Writing library : XviD 1.2.1 (UTC 2008-12-04)
    Audio #1
    ID : 1
    Format : MPEG Audio
    Format version : Version 1
    Format profile : Layer 3
    Mode : Joint stereo
    Codec ID : 55
    Codec ID/Hint : MP3
    Duration : 1h 36mn
    Bit rate mode : Constant
    Bit rate : 192 Kbps
    Channel(s) : 2 channels
    Sampling rate : 44.1 KHz
    Compression mode : Lossy
    Stream size : 132 MiB (6%)
    Alignment : Split accross interleaves
    Interleave, duration : 40 ms (1.00 video frame)
    Interleave, preload duration : 500 ms
    Audio #2
    ID : 2
    Format : MPEG Audio
    Format version : Version 1
    Format profile : Layer 3
    Mode : Joint stereo
    Codec ID : 55
    Codec ID/Hint : MP3
    Duration : 1h 36mn
    Bit rate mode : Constant
    Bit rate : 192 Kbps
    Channel(s) : 2 channels
    Sampling rate : 44.1 KHz
    Compression mode : Lossy
    Stream size : 132 MiB (6%)
    Alignment : Split accross interleaves
    Interleave, duration : 40 ms (1.00 video frame)
    Interleave, preload duration : 500 ms
    Audio #3
    ID : 3
    Format : AC-3
    Format/Info : Audio Coding 3
    Mode extension : CM (complete main)
    Format settings, Endianness : Big
    Codec ID : 2000
    Duration : 1h 36mn
    Bit rate mode : Constant
    Bit rate : 448 Kbps
    Channel(s) : 6 channels
    Channel positions : Front: L C R, Side: L R, LFE
    Sampling rate : 48.0 KHz
    Bit depth : 16 bits
    Compression mode : Lossy
    Stream size : 308 MiB (15%)
    Alignment : Split accross interleaves
    Interleave, duration : 40 ms (1.00 video frame)
    Interleave, preload duration : 500 ms

    Скриншот c названием фильма

    Скриншоты





    Скачать .torrent

    Скачать торрент-файл бесплатно и на максимальной скорости!

    Как скачивать? · Что такое торрент? · Рейтинг и ограничения

    !ВНИМАНИЕ!
    Сайт не распространяет и не хранит электронные версии произведений, а занимается лишь лишь предоставлением доступа к создаваемому пользователями каталогу ссылок на торрент-файлы, которые содержат только списки хеш-сумм, убедительная просьба с жалобами обращаться напрямую к пользователю. Файлы для обмена на трекере предоставлены пользователями сайта, и администрация не несёт ответственности за их содержание. Просьба не заливать файлы, защищенные авторскими правами, а также файлы нелегального содержания!


    _________________
    [Профиль] [ЛС]
    Показать сообщения:    
    Ответить на тему

    Текущее время: Сегодня, в 05:26

    Часовой пояс: GMT + 2



    Вы не можете начинать темы
    Вы не можете отвечать на сообщения
    Вы не можете редактировать свои сообщения
    Вы не можете удалять свои сообщения
    Вы не можете голосовать в опросах
    Вы не можете прикреплять файлы к сообщениям
    Вы не можете скачивать файлы