BitTorrentTracker PerecTracker.org
BitTorrentTracker PerecTracker.org
    
Регистрация  ·  Вход
 
 · 
Забыли пароль?

  • Сапожник / The Cobbler (Томас МакКарти / Thomas McCarthy) [2014, США, фэнтези, драма, комедия, WEB-DLRip] DVO

    Ответить на тему
     
    Автор Сообщение

    Light

    Создавать темы 30-Мар-2015 09:00

           

    [Цитировать]

    Сапожник / The Cobbler

    Страна: США
    Жанр: фэнтези, драма, комедия
    Год выпуска: 2014
    Продолжительность: 01:38:02
    Перевод: Любительский (двухголосый закадровый)
    Оригинальная аудиодорожка: нет
    Субтитры: нет
    Режиссер: Томас МакКарти / Thomas McCarthy
    В ролях: Адам Сэндлер, Дэн Стивенс, Стив Бушеми, Дастин Хоффман, Эллен Баркин, Елена Кампурис, Гленн Флешлер, Метод Мэн, Мелони Диас, Джаред Сэндлер
    Описание: Макс Симкин занимается ремонтом обуви в Нью-Йорке. Он работает в магазине, который передавался его семьей из поколения в поколение. Однажды, разочарованный своей скучной жизнью, Макс натыкается на волшебную реликвию, которая позволяет ему увидеть мир по-новому.

    Качество: WEBRip
    Контейнер: AVI
    Видео: 624x336 (1.86:1), 23.976 fps, XviD build 73 ~924 kbps avg, 0.18 bit/pixel
    Аудио: 48 kHz, MPEG Layer 3, 2 ch, ~128.00 kbps avg

    MI

    Общее
    Полное имя : C:\Users\Вячеслав\Downloads\Сапожник. 2014. WEB-DLRip (AleksSin).avi
    Формат : AVI
    Формат/Информация : Audio Video Interleave
    Размер файла : 745 Мбайт
    Продолжительность : 1 ч. 38 м.
    Общий поток : 1062 Кбит/сек
    Программа кодирования : VirtualDubMod 1.5.10.3 | www.virtualdub-fr.org || (build 2550/release)
    Библиотека кодирования : VirtualDubMod build 2550/release
    Видео
    Идентификатор : 0
    Формат : MPEG-4 Visual
    Профиль формата : Advanced Simple@L5
    Параметр BVOP формата : 1
    Параметр QPel формата : Нет
    Параметр GMC формата : Без точки перехода
    Параметр матрицы формата : Выборочная
    Идентификатор кодека : XVID
    Идентификатор кодека/Подсказка : XviD
    Продолжительность : 1 ч. 38 м.
    Битрейт : 925 Кбит/сек
    Ширина : 624 пикселя
    Высота : 336 пикселей
    Соотношение сторон : 1,85:1
    Частота кадров : 23,976 кадра/сек
    Цветовое пространство : YUV
    Субдискретизация насыщенности : 4:2:0
    Битовая глубина : 8 бит
    Тип развёртки : Прогрессивная
    Метод сжатия : С потерями
    Бит/(Пиксели*Кадры) : 0.184
    Размер потока : 649 Мбайт (87%)
    Библиотека кодирования : XviD 73
    Аудио
    Идентификатор : 1
    Формат : MPEG Audio
    Версия формата : Version 1
    Профиль формата : Layer 3
    Идентификатор кодека : 55
    Идентификатор кодека/Подсказка : MP3
    Продолжительность : 1 ч. 38 м.
    Вид битрейта : Постоянный
    Битрейт : 128 Кбит/сек
    Каналы : 2 канала
    Частота : 48,0 КГц
    Метод сжатия : С потерями
    Размер потока : 89,8 Мбайт (12%)
    Выравнивание : Соединение по промежуткам
    Продолжительность промежутка : 42 мс. (1,00 видеокадр)
    Время предзагрузки промежутка : 504 мс.
    Библиотека кодирования : LAME3.99r
    Настройки программы : -m s -V 4 -q 2 -lowpass 17 -b 128

    Скриншоты

    Скачать .torrent

    Скачать торрент-файл бесплатно и на максимальной скорости!

    Как скачивать? · Что такое торрент? · Рейтинг и ограничения

    !ВНИМАНИЕ!
    Сайт не распространяет и не хранит электронные версии произведений, а занимается лишь лишь предоставлением доступа к создаваемому пользователями каталогу ссылок на торрент-файлы, которые содержат только списки хеш-сумм, убедительная просьба с жалобами обращаться напрямую к пользователю. Файлы для обмена на трекере предоставлены пользователями сайта, и администрация не несёт ответственности за их содержание. Просьба не заливать файлы, защищенные авторскими правами, а также файлы нелегального содержания!


    _________________
    [Профиль] [ЛС]
    Показать сообщения:    
    Ответить на тему

    Текущее время: Сегодня, в 20:56

    Часовой пояс: GMT + 2



    Вы не можете начинать темы
    Вы не можете отвечать на сообщения
    Вы не можете редактировать свои сообщения
    Вы не можете удалять свои сообщения
    Вы не можете голосовать в опросах
    Вы не можете прикреплять файлы к сообщениям
    Вы не можете скачивать файлы