Register  ·  Log in
Forgot password?

  • Заповедник / Preservation (Кристофер Денэм / Christopher Denham) [2014, США, ужасы, триллер, WEB-DLRip] DVO (HamsterStudio)

    Reply to topic
    Author Message


    Post 30-Mar-2015 10:00



    Заповедник / Preservation
    Страна: США
    Жанр: ужасы, триллер
    Год выпуска: 2014
    Продолжительность: 01:28:15
    Перевод: Антон "Antonio" Кедров
    Озвучание: Любительское (двухголосое закадровое) HamsterStudio
    Cубтитры: нет
    Оригинальная аудиодорожка: нет
    Режиссер: Кристофер Денэм / Christopher Denham
    В ролях: Пабло Шрайбер, Аарон Стэтон, Ренн Шмидт, Коди Сайнткно, Ник Сашо, Майкл Чакон
    Описание: Два брата, Шон и Майк и жена Майка отправляются поохотится, чтоб отвлечься от домашних проблем. Не обращая внимания на запрещающие знаки, они проникают в закрытый заповедник и их проблемы только начинаются.
    Качество видео: WEB-DLRip Видеоряд отсюда
    Формат видео: AVI
    Видео: 720x304 (2.37:1), 23.976 fps, XviD MPEG-4 ~1833 kbps avg, 0.35 bit/pixel
    Аудио: AC3; 384 Kbps; CBR; 6 ch; 48 khz


    Complete name : C:\ФИЛЬМЫ\Заповедник.avi
    Format : AVI
    Format/Info : Audio Video Interleave
    File size : 1.37 GiB
    Duration : 1h 28mn
    Overall bit rate : 2 227 Kbps
    Writing application : VirtualDubMod (build 2540/release)
    Writing library : VirtualDubMod build 2540/release
    Video #0
    ID : 0
    Format : MPEG-4 Visual
    Format profile : AdvancedSimple@L5
    Format settings, BVOP : Yes
    Format settings, QPel : No
    Format settings, GMC : No warppoints
    Format settings, Matrix : Default (H.263)
    Muxing mode : Packed bitstream
    Codec ID : XVID
    Codec ID/Hint : XviD
    Duration : 1h 28mn
    Bit rate : 1 834 Kbps
    Width : 720 pixels
    Height : 304 pixels
    Display aspect ratio : 2.35:1
    Frame rate : 23.976 fps
    Resolution : 24 bits
    Colorimetry : 4:2:0
    Scan type : Progressive
    Bits/(Pixel*Frame) : 0.349
    Stream size : 1.13 GiB (82%)
    Writing library : XviD 64
    Audio #1
    ID : 1
    Format : AC-3
    Format/Info : Audio Coding 3
    Codec ID : 2000
    Duration : 1h 28mn
    Bit rate mode : Constant
    Bit rate : 384 Kbps
    Channel(s) : 6 channels
    Channel positions : Front: L C R, Surround: L R, LFE
    Sampling rate : 48.0 KHz
    Stream size : 242 MiB (17%)
    Alignment : Split accross interleaves
    Interleave, duration : 42 ms (1.00 video frame)
    Interleave, preload duration : 500 ms

    Скриншот c названием фильма


    Download .torrent

    Download free and at maximum speed!

    How to Download? · What is a torrent? · Ratings and Limitations

    The site does not extend and does not store electronic(digital) versions of products, and only gives access to a reference catalogue created by users on torrent-files which contain only lists of the hash-sums, the earnest entreaty, with complaints(abuse) to access directly to the user. Files for an exchange on tracker are given by users of a site, and the administration does not bear the responsibility for their maintenance. The request to not fill in the files protected by copyrights, and also files of the illegal maintenance!

    [Profile] [PM]
    Display posts from previous:    
    Reply to topic

    The time now is: Today 07:19

    All times are GMT + 3 Hours

    You cannot post new topics in this forum
    You cannot reply to topics in this forum
    You cannot edit your posts in this forum
    You cannot delete your posts in this forum
    You cannot vote in polls in this forum
    You cannot attach files in this forum
    You cannot download files in this forum