BitTorrentTracker PerecTracker.org
BitTorrentTracker PerecTracker.org
    
Регистрация  ·  Вход
 
 · 
Забыли пароль?

  • Заповедник / Preservation (Кристофер Денэм / Christopher Denham) [2014, США, ужасы, триллер, WEB-DLRip] DVO (HamsterStudio)

    Ответить на тему
     
    Автор Сообщение

    Light

    Создавать темы 30-Мар-2015 09:00

           

    [Цитировать]

    Заповедник / Preservation
    Страна: США
    Жанр: ужасы, триллер
    Год выпуска: 2014
    Продолжительность: 01:28:15
    Перевод: Антон "Antonio" Кедров
    Озвучание: Любительское (двухголосое закадровое) HamsterStudio
    Cубтитры: нет
    Оригинальная аудиодорожка: нет
    Режиссер: Кристофер Денэм / Christopher Denham
    В ролях: Пабло Шрайбер, Аарон Стэтон, Ренн Шмидт, Коди Сайнткно, Ник Сашо, Майкл Чакон
    Описание: Два брата, Шон и Майк и жена Майка отправляются поохотится, чтоб отвлечься от домашних проблем. Не обращая внимания на запрещающие знаки, они проникают в закрытый заповедник и их проблемы только начинаются.
    Качество видео: WEB-DLRip Видеоряд отсюда
    Формат видео: AVI
    Видео: 720x304 (2.37:1), 23.976 fps, XviD MPEG-4 ~1833 kbps avg, 0.35 bit/pixel
    Аудио: AC3; 384 Kbps; CBR; 6 ch; 48 khz

    MediaInfo

    C:\ФИЛЬМЫ\Заповедник.avi
    General
    Complete name : C:\ФИЛЬМЫ\Заповедник.avi
    Format : AVI
    Format/Info : Audio Video Interleave
    File size : 1.37 GiB
    Duration : 1h 28mn
    Overall bit rate : 2 227 Kbps
    Writing application : VirtualDubMod 1.5.10.2 (build 2540/release)
    Writing library : VirtualDubMod build 2540/release
    Video #0
    ID : 0
    Format : MPEG-4 Visual
    Format profile : AdvancedSimple@L5
    Format settings, BVOP : Yes
    Format settings, QPel : No
    Format settings, GMC : No warppoints
    Format settings, Matrix : Default (H.263)
    Muxing mode : Packed bitstream
    Codec ID : XVID
    Codec ID/Hint : XviD
    Duration : 1h 28mn
    Bit rate : 1 834 Kbps
    Width : 720 pixels
    Height : 304 pixels
    Display aspect ratio : 2.35:1
    Frame rate : 23.976 fps
    Resolution : 24 bits
    Colorimetry : 4:2:0
    Scan type : Progressive
    Bits/(Pixel*Frame) : 0.349
    Stream size : 1.13 GiB (82%)
    Writing library : XviD 64
    Audio #1
    ID : 1
    Format : AC-3
    Format/Info : Audio Coding 3
    Codec ID : 2000
    Duration : 1h 28mn
    Bit rate mode : Constant
    Bit rate : 384 Kbps
    Channel(s) : 6 channels
    Channel positions : Front: L C R, Surround: L R, LFE
    Sampling rate : 48.0 KHz
    Stream size : 242 MiB (17%)
    Alignment : Split accross interleaves
    Interleave, duration : 42 ms (1.00 video frame)
    Interleave, preload duration : 500 ms

    Скриншот c названием фильма

    Скриншоты

    Скачать .torrent

    Скачать торрент-файл бесплатно и на максимальной скорости!

    Как скачивать? · Что такое торрент? · Рейтинг и ограничения

    !ВНИМАНИЕ!
    Сайт не распространяет и не хранит электронные версии произведений, а занимается лишь лишь предоставлением доступа к создаваемому пользователями каталогу ссылок на торрент-файлы, которые содержат только списки хеш-сумм, убедительная просьба с жалобами обращаться напрямую к пользователю. Файлы для обмена на трекере предоставлены пользователями сайта, и администрация не несёт ответственности за их содержание. Просьба не заливать файлы, защищенные авторскими правами, а также файлы нелегального содержания!


    _________________
    [Профиль] [ЛС]
    Показать сообщения:    
    Ответить на тему

    Текущее время: Сегодня, в 18:25

    Часовой пояс: GMT + 2



    Вы не можете начинать темы
    Вы не можете отвечать на сообщения
    Вы не можете редактировать свои сообщения
    Вы не можете удалять свои сообщения
    Вы не можете голосовать в опросах
    Вы не можете прикреплять файлы к сообщениям
    Вы не можете скачивать файлы