BitTorrentTracker PerecTracker.org
BitTorrentTracker PerecTracker.org
    
Регистрация  ·  Вход
 
 · 
Забыли пароль?

  • Оборотень / Wer (Уильям Брент Белл / William Brent Bell) [2013, США, ужасы, триллер, детектив, BDRip-AVC] Dub

    Ответить на тему
     
    Автор Сообщение

    Light

    Создавать темы 30-Мар-2015 09:00

           

    [Цитировать]

    Оборотень
    Wer


    Страна: США
    Жанр: ужасы, триллер, детектив
    Год выпуска: 2013
    Продолжительность: 01:33:18
    Перевод: Профессиональный (полное дублирование) [Лицензия, R5] Отред. Ювелир
    Cубтитры: нет
    Оригинальная аудиодорожка: нет
    Режиссер:
    Уильям Брент Белл / William Brent Bell
    В ролях:
    А.Дж. Кук, Брайан Скотт О’Коннор, Себастьян Роше, Саймон Куотерман, Вик Сахай, Стефани Николь Лемелин, Окли Пендергаст, Брайан Джонсон, Йонут Грама, Камелиа Максим
    Описание:
    Главная героиня фильма — молодая девушка Кейт Мур, которая совсем недавно окончила юридический вуз. Однажды ее подзащитным становиться мужчина по имени Талан Гвинек, которого обвиняют в ряде жестоких убийств. Это дело совершенно не похоже на другие, ведь клиент Кейт болен очень редким заболеванием гипертрихозом, которое вызывает повышенную волосатость, и делает подзащитного похожим на зверя. Ко всему прочему болезнь вызывает вялость в поведение и боль в суставах, что дает Кет вескую причину утверждать, что ее подзащитный не виновен, и она делает все возможное, чтобы это доказать.
    Однако у детектива Клауса Пистора, занимающегося расследованием этого ужасного дела, совершенно иное мнение по этому поводу, и он ни на минуту не сомневается в виновности Талана. Но вскоре происходит инцидент, который не только заставляет Кейт кардинальным образом изменить свое мнение, но и дает понять всем окружающим, что Талан не просто человек…

    Релиз:
    Автор рипа: Stalker oK
    Сэмпл: multi-up
    Качество видео: BDRip-AVC [Wer.2013.BluRay.1080p.DTS-HD.MA.5.1.AVC.REMUX-FraMeSToR]
    Формат видео: MKV
    Видео кодек: AVC
    Аудио кодек: AC3
    Видео: 1796 Кбит/сек, 960*520 (16:9), в 23,976 кадр/сек, AVC
    Аудио: Russian, 448 Кбит/сек, 48,0 КГц, 16 бит, 6 канала(ов), AC-3

    MediaInfo

    Общее
    Уникальный идентификатор : 214982350945620033875413748279656257304 (0xA1BC183F9377F2B19816F2C2ECC31718)
    Полное имя : K:\Wer.2013.BluRay.1080p.DTS-HD.MA.5.1.AVC.REMUX-FraMeSToR\Oboroten'.2013.BDRip-AVC.Dub.1.45Gb...stalkerok.new-team.mkv
    Формат : Matroska
    Размер файла : 1,46 Гбайт
    Продолжительность : 1 ч. 33 м.
    Общий поток : 2246 Кбит/сек
    Название фильма : Wer, 2013 (New-Team) (Rip by Stalker oK)
    Дата кодирования : UTC 2015-03-29 18:19:05
    Программа кодирования : mkvmerge v6.1.0 ('Old Devil') built on Mar 4 2013 09:10:42
    Библиотека кодирования : libebml v1.3.0 + libmatroska v1.4.0
    Видео
    Идентификатор : 1
    Формат : AVC
    Формат/Информация : Advanced Video Codec
    Профиль формата : High@L4.1
    Параметр CABAC формата : Да
    Параметр ReFrames формата : 12 кадры
    Идентификатор кодека : V_MPEG4/ISO/AVC
    Продолжительность : 1 ч. 33 м.
    Битрейт : 1796 Кбит/сек
    Ширина : 960 пикс.
    Высота : 520 пикс.
    Соотношение сторон : 16:9
    Частота кадров : 23,976 кадр/сек
    Цветовое пространство : YUV
    Подвыборка цветности : 4:2:0
    Битовая глубина : 8 бит
    Тип развёртки : Прогрессивная
    Бит/(Пиксели*Кадры) : 0.150
    Размер потока : 1,14 Гбайт (78%)
    Библиотека кодирования : x264 core 146 r2538kMod 121396c
    Настройки программы : cabac=1 / ref=12 / deblock=1:-3:-2 / analyse=0x3:0x133 / me=umh / subme=11 / psy=1 / fade_compensate=0.00 / psy_rd=1.00:0.15 / mixed_ref=1 / me_range=48 / chroma_me=1 / trellis=2 / 8x8dct=1 / cqm=0 / deadzone=21,11 / fast_pskip=0 / chroma_qp_offset=-3 / threads=12 / lookahead_threads=3 / sliced_threads=0 / nr=0 / decimate=0 / interlaced=0 / bluray_compat=0 / constrained_intra=0 / fgo=0 / bframes=14 / b_pyramid=2 / b_adapt=2 / b_bias=0 / direct=3 / weightb=1 / open_gop=0 / weightp=2 / keyint=240 / keyint_min=23 / scenecut=40 / intra_refresh=0 / rc_lookahead=80 / rc=2pass / mbtree=0 / bitrate=1796 / ratetol=1.0 / qcomp=0.65 / qpmin=0 / qpmax=69 / qpstep=4 / cplxblur=20.0 / qblur=0.5 / vbv_maxrate=50000 / vbv_bufsize=62500 / nal_hrd=none / filler=0 / ip_ratio=1.30 / pb_ratio=1.20 / aq=3:0.95
    Аудио
    Идентификатор : 2
    Формат : AC-3
    Формат/Информация : Audio Coding 3
    Расширение режима : CM (complete main)
    Идентификатор кодека : A_AC3
    Продолжительность : 1 ч. 33 м.
    Вид битрейта : Постоянный
    Битрейт : 448 Кбит/сек
    Канал(ы) : 6 канала(ов)
    Расположение каналов : Front: L C R, Side: L R, LFE
    Частота : 48,0 КГц
    Битовая глубина : 16 бит
    Метод сжатия : С потерями
    Размер потока : 299 Мбайт (20%)
    Язык : Russian

    Скриншоты

    Скачать .torrent

    Скачать торрент-файл бесплатно и на максимальной скорости!

    Как скачивать? · Что такое торрент? · Рейтинг и ограничения

    !ВНИМАНИЕ!
    Сайт не распространяет и не хранит электронные версии произведений, а занимается лишь лишь предоставлением доступа к создаваемому пользователями каталогу ссылок на торрент-файлы, которые содержат только списки хеш-сумм, убедительная просьба с жалобами обращаться напрямую к пользователю. Файлы для обмена на трекере предоставлены пользователями сайта, и администрация не несёт ответственности за их содержание. Просьба не заливать файлы, защищенные авторскими правами, а также файлы нелегального содержания!


    _________________
    [Профиль] [ЛС]
    Показать сообщения:    
    Ответить на тему

    Текущее время: Сегодня, в 04:02

    Часовой пояс: GMT + 2



    Вы не можете начинать темы
    Вы не можете отвечать на сообщения
    Вы не можете редактировать свои сообщения
    Вы не можете удалять свои сообщения
    Вы не можете голосовать в опросах
    Вы не можете прикреплять файлы к сообщениям
    Вы не можете скачивать файлы