BitTorrentTracker PerecTracker.org
BitTorrentTracker PerecTracker.org
    
Регистрация  ·  Вход
 
 · 
Забыли пароль?

  • Дети священника / Svecenikova djeca / The Priest\'s Children (Винко Брешан / Vinko Bresan) [2013, Хорватия, Сербия, Черногория, трагикомедия, экранизация, DVB] MVO (НТВ+)

    Ответить на тему
     
    Автор Сообщение

    Light

    Создавать темы 29-Мар-2015 00:06

           

    [Цитировать]

    Дети священника
    Svećenikova djeca-Страна: Хорватия, Сербия, Черногория
    Жанр: трагикомедия, экранизация
    Год выпуска: 2013
    Продолжительность: 01:32:20
    Перевод: Профессиональный (многоголосый закадровый) НТВ+
    Cубтитры: нет
    Режиссер: Винко Брешан / Vinko BrešanВ ролях: Крешимир Микич / Krešimir Mikić (Don Fabijan), Никша Бутиер / Nikša Butijer (Petar), Мария Шкаричич / Marija Škaričić (Marija), Дражен Кин / Dražen Kühn (Marin)
    Описание: По мотивам одноименной книги хорватского писателя, сценариста, композитора и музыканта Мате Матишич / Mate Matišić.
    Молодой священник служит в церкви на острове в Адриатике. Он считает, что у местных жителей слишком мало детей, и разрабатывает свой план. Весте с сообщниками он берет под контроль продажу кое-каких предметов, помогающих контролировать рождаемость… (анонс канала "Премьера")
    Доп. информация: DVB-S
    Награды: приз за лучший балканский фильм Thessaloniki Film Festival 2013; приз "Золотая арена" Pula Film Festival 2013 за лучшую мужскую роль второго плана (Nikša Butijer); номинация на "Хрустальный глобус" Karlovy Vary International Film Festival 2013; номинация на приз "Феликс" за лучшую европейскую комедию European Film Awards 2013; номинация на приз "Золотой Хьюго" за лучший фильм Chicago International Film Festival 2013; приз "Золотой дельфин" за лучший фильм Festróia - Tróia International Film Festival 2014.

    Качество видео: DVB
    Формат видео: MKV
    Видео: MPEG Video 2, 720x576@1024x576 (16:9), 25 fps, ~1701 kbps avg, 0.164 bit/pixel
    Аудио: AC3, 2 ch, 48 kHz, ~192.00 kbps avg

    MediaInfo

    ОбщееУникальный идентификатор : 242914969105752529100182806943348051959 (0xB6BFB8A6BA5C2B98A07B6F850C6C4FF7)Полное имя : E:\My Torrents 2\[apreder]Svecenikova_djeca(2013)DVB.mkvФормат : MatroskaВерсия формата : Version 2Размер файла : 1,25 ГбайтПродолжительность : 1 ч. 32 м.Режим общего битрейта : ПеременныйОбщий поток : 1931 Кбит/секДата кодирования : UTC 2015-03-28 10:43:43Программа кодирования : mkvmerge v7.8.0 ('River Man') 64bit built on Mar 27 2015 16:31:37Библиотека кодирования : libebml v1.3.1 + libmatroska v1.4.2
    ВидеоИдентификатор : 1Формат : MPEG VideoВерсия формата : Version 2Профиль формата : Main@MainПараметр BVOP формата : ДаПараметр матрицы формата : ВыборочнаяПараметр GOP формата : M=3, N=36Format_Settings_PictureStructure : FrameИдентификатор кодека : V_MPEG2Идентификатор кодека/Информация : MPEG 1 or 2 VideoПродолжительность : 1 ч. 32 м.Вид битрейта : ПеременныйБитрейт : 1701 Кбит/секШирина : 720 пикселейВысота : 576 пикселейСоотношение сторон : 16:9Режим частоты кадров : ПостоянныйЧастота кадров : 25,000 кадров/секСтандарт вещания : PALЦветовое пространство : YUVСубдискретизация насыщенности : 4:2:0Битовая глубина : 8 битТип развёртки : ЧересстрочнаяПорядок развёртки : Верхнее поле первоеМетод сжатия : С потерямиБит/(Пиксели*Кадры) : 0.164Временной код первого кадра : 00:00:00:00Оригинал временного кода : Group of pictures headerРазмер потока : 1,10 Гбайт (88%)Default : ДаForced : НетGop_OpenClosed_FirstFrame : Closed
    АудиоИдентификатор : 2Формат : AC-3Формат/Информация : Audio Coding 3Расширение режима : CM (complete main)Параметр Endianness формата : BigИдентификатор кодека : A_AC3Продолжительность : 1 ч. 32 м.Вид битрейта : ПостоянныйБитрейт : 192 Кбит/секКаналы : 2 каналаРасположение каналов : Front: L RЧастота : 48,0 КГцБитовая глубина : 16 битМетод сжатия : С потерямиРазмер потока : 127 Мбайт (10%)Язык : RussianDefault : ДаForced : Нет

    Скриншот c названием фильма

    Скриншоты

    Резервные скриншоты


    -[2'184]
    Скачать .torrent

    Скачать торрент-файл бесплатно и на максимальной скорости!

    Как скачивать? · Что такое торрент? · Рейтинг и ограничения

    !ВНИМАНИЕ!
    Сайт не распространяет и не хранит электронные версии произведений, а занимается лишь лишь предоставлением доступа к создаваемому пользователями каталогу ссылок на торрент-файлы, которые содержат только списки хеш-сумм, убедительная просьба с жалобами обращаться напрямую к пользователю. Файлы для обмена на трекере предоставлены пользователями сайта, и администрация не несёт ответственности за их содержание. Просьба не заливать файлы, защищенные авторскими правами, а также файлы нелегального содержания!


    _________________
    [Профиль] [ЛС]
    Показать сообщения:    
    Ответить на тему

    Текущее время: Сегодня, в 00:31

    Часовой пояс: GMT + 2



    Вы не можете начинать темы
    Вы не можете отвечать на сообщения
    Вы не можете редактировать свои сообщения
    Вы не можете удалять свои сообщения
    Вы не можете голосовать в опросах
    Вы не можете прикреплять файлы к сообщениям
    Вы не можете скачивать файлы