Register  ·  Log in
Forgot password?

  • Изыди!.. (Дмитрий Астрахан) [1991, драма, комедия, TVRip]

    Reply to topic
    Author Message


    Post 28-Mar-2015 12:30



    Жанр: драма, комедия
    Год выпуска: 1991
    Продолжительность: 01:23:38
    Режиссёр: Дмитрий Астрахан
    В ролях: Отар Мегвинетухуцеси, Елена Анисимова, Тамара Схиртладзе, Татьяна Кузнецова, Валентин Букин, Владимир Кабалин, Александр Лыков, Ксения Раппопорт, Николай Рыбников, Виктор Бычков
    Описание: Мотя Рабинович отмечал открытие своего маленького дела. Село Антоновка гуляло весело, не чуя грядущей беды. По-русски хмельное, по-еврейски ироничное гульбище вселяло надежду, что ничего плохого не случится.
    Доп. информация: Дебютный фильм Дмитрия Астрахана.
    Качество видео: TVRip (Исходник от moon_c@t)
    Формат видео: AVI
    Видео: 624x480 (1.30:1), 25 fps, XviD build 65 ~2268 kbps avg, 0.30 bit/pixel
    Аудио: 48 kHz, AC3 Dolby Digital, 2/0 (L,R) ch, ~224 kbps


    Complete name : C:\Users\ALEX\Downloads\Фильмы\Изыди!..1991.TVRip.XviD.AC3.avi
    Format : AVI
    Format/Info : Audio Video Interleave
    File size : 1.46 GiB
    Duration : 1h 23mn
    Overall bit rate : 2 502 Kbps
    Writing application : VirtualDubMod (build 2542/release)
    Writing library : VirtualDubMod build 2542/release
    ID : 0
    Format : MPEG-4 Visual
    Format profile : Advanced Simple@L5
    Format settings, BVOP : 1
    Format settings, QPel : No
    Format settings, GMC : No warppoints
    Format settings, Matrix : Custom
    Codec ID : XVID
    Codec ID/Hint : XviD
    Duration : 1h 23mn
    Bit rate : 2 268 Kbps
    Width : 624 pixels
    Height : 480 pixels
    Display aspect ratio : 4:3
    Frame rate : 25.000 fps
    Color space : YUV
    Chroma subsampling : 4:2:0
    Bit depth : 8 bits
    Scan type : Progressive
    Compression mode : Lossy
    Bits/(Pixel*Frame) : 0.303
    Stream size : 1.33 GiB (91%)
    Writing library : XviD 65
    ID : 1
    Format : AC-3
    Format/Info : Audio Coding 3
    Mode extension : CM (complete main)
    Format settings, Endianness : Big
    Codec ID : 2000
    Duration : 1h 23mn
    Bit rate mode : Constant
    Bit rate : 224 Kbps
    Channel(s) : 2 channels
    Channel positions : Front: L R
    Sampling rate : 48.0 KHz
    Bit depth : 16 bits
    Compression mode : Lossy
    Stream size : 134 MiB (9%)
    Alignment : Split accross interleaves
    Interleave, duration : 40 ms (1.00 video frame)
    Interleave, preload duration : 500 ms


    Download .torrent

    Download free and at maximum speed!

    How to Download? · What is a torrent? · Ratings and Limitations

    The site does not extend and does not store electronic(digital) versions of products, and only gives access to a reference catalogue created by users on torrent-files which contain only lists of the hash-sums, the earnest entreaty, with complaints(abuse) to access directly to the user. Files for an exchange on tracker are given by users of a site, and the administration does not bear the responsibility for their maintenance. The request to not fill in the files protected by copyrights, and also files of the illegal maintenance!

    [Profile] [PM]
    Display posts from previous:    
    Reply to topic

    The time now is: Today 02:50

    All times are GMT + 3 Hours

    You cannot post new topics in this forum
    You cannot reply to topics in this forum
    You cannot edit your posts in this forum
    You cannot delete your posts in this forum
    You cannot vote in polls in this forum
    You cannot attach files in this forum
    You cannot download files in this forum