BitTorrentTracker PerecTracker.org
BitTorrentTracker PerecTracker.org
    
Регистрация  ·  Вход
 
 · 
Забыли пароль?

  • Внеземное Эхо / Earth to Echo (Дэйв Грин / Dave Green) [2014, США, фантастика, приключения, семейный, HDRip] MVO

    Ответить на тему
     
    Автор Сообщение

    Light

    Создавать темы 27-Мар-2015 22:54

           

    [Цитировать]

    Внеземное Эхо / Earth to Echo
    Страна: США
    Жанр: фантастика, приключения, семейный
    Год выпуска: 2014
    Продолжительность: 01:31:15
    Перевод: Любительский (многоголосый закадровый)
    Cубтитры: нет
    Режиссер: Дэйв Грин / Dave Green
    В ролях: Тео Хальм, Астро, Риз Хартвиг, Элла Валестедт, Джейсон Грей-Стенфорд, Элджи Смит, Кассиус Клэй, Соня Лесли, Керри О’Мэлли, Вирджиния Луиз Смит
    Описание: До этого времени они были просто хорошистами в школе и тремя лучшими друзьями - Таск, Манч и Алекс. И тут их телефоны начали получать непонятное сообщение. Ребята показали их родителям и полиции, но те лишь махнули руками. Хотя парни уверены, что это сообщение что то значит и расшифровав его отправились на велосипедах к его источнику. Так они обнаружили внеземное создание и назвали его - Эхо. Но за этим созданием охотятся и другие люди и теперь судьба всего человечества в руках у этих юных ребят.
    Сэмпл: http://sendfile.su/1100972
    Качество видео: HDRip
    Формат видео: AVI
    Видео: 1 687 Kbps, 720*400 (16:9), at 23.976 Kbps, MPEG-4 Visual (XviD)
    Аудио: 448 Kbps, 48.0 KHz, 16 bits, 6 channels, AC-3

    MediaInfo

    General
    Complete name : D:\Внеземное Эхо (2014).avi
    Format : AVI
    Format/Info : Audio Video Interleave
    File size : 1.37 GiB
    Duration : 1h 31mn
    Overall bit rate : 2 144 Kbps
    Writing application : VirtualDubMod 1.5.10.2 (build 2540/release)
    Writing library : VirtualDubMod build 2540/release
    Video
    ID : 0
    Format : MPEG-4 Visual
    Format profile : Advanced Simple@L5
    Format settings, BVOP : 2
    Format settings, QPel : No
    Format settings, GMC : No warppoints
    Format settings, Matrix : Default (MPEG)
    Codec ID : XVID
    Codec ID/Hint : XviD
    Duration : 1h 31mn
    Bit rate : 1 687 Kbps
    Width : 720 pixels
    Height : 400 pixels
    Display aspect ratio : 16:9
    Frame rate : 23.976 fps
    Color space : YUV
    Chroma subsampling : 4:2:0
    Bit depth : 8 bits
    Scan type : Progressive
    Compression mode : Lossy
    Bits/(Pixel*Frame) : 0.244
    Stream size : 1.08 GiB (79%)
    Writing library : XviD 1.2.1 (UTC 2008-12-04)
    Audio
    ID : 1
    Format : AC-3
    Format/Info : Audio Coding 3
    Mode extension : CM (complete main)
    Format settings, Endianness : Big
    Codec ID : 2000
    Duration : 1h 31mn
    Bit rate mode : Constant
    Bit rate : 448 Kbps
    Channel(s) : 6 channels
    Channel positions : Front: L C R, Side: L R, LFE
    Sampling rate : 48.0 KHz
    Bit depth : 16 bits
    Compression mode : Lossy
    Stream size : 292 MiB (21%)
    Alignment : Split accross interleaves
    Interleave, duration : 42 ms (1.00 video frame)
    Interleave, preload duration : 500 ms

    Скриншот c названием фильма

    Скриншоты

    Скачать .torrent

    Скачать торрент-файл бесплатно и на максимальной скорости!

    Как скачивать? · Что такое торрент? · Рейтинг и ограничения

    !ВНИМАНИЕ!
    Сайт не распространяет и не хранит электронные версии произведений, а занимается лишь лишь предоставлением доступа к создаваемому пользователями каталогу ссылок на торрент-файлы, которые содержат только списки хеш-сумм, убедительная просьба с жалобами обращаться напрямую к пользователю. Файлы для обмена на трекере предоставлены пользователями сайта, и администрация не несёт ответственности за их содержание. Просьба не заливать файлы, защищенные авторскими правами, а также файлы нелегального содержания!


    _________________
    [Профиль] [ЛС]
    Показать сообщения:    
    Ответить на тему

    Текущее время: Сегодня, в 14:36

    Часовой пояс: GMT + 2



    Вы не можете начинать темы
    Вы не можете отвечать на сообщения
    Вы не можете редактировать свои сообщения
    Вы не можете удалять свои сообщения
    Вы не можете голосовать в опросах
    Вы не можете прикреплять файлы к сообщениям
    Вы не можете скачивать файлы