BitTorrentTracker PerecTracker.org
BitTorrentTracker PerecTracker.org
    
Регистрация  ·  Вход
 
 · 
Забыли пароль?

  • Need for Speed: Жажда скорости / Need for Speed (Скотт Во / Scott Waugh) [2014, США, Филиппины, Ирландия, Великобритания, боевик, триллер, драма, криминал, BDRip] Dub

    Ответить на тему
     
    Автор Сообщение

    Light

    Создавать темы 27-Мар-2015 22:54

           

    [Цитировать]

    Need for Speed: Жажда скорости / Need for Speed

    Тормоза придумал трус»
    -Страна: США, Филиппины, Ирландия, Великобритания
    Производство: Bandito Brothers, DreamWorks SKG, Electronic Arts, Reliance Entertainment
    Жанр: боевик, триллер, драма, криминал
    Год выпуска: 2014
    Продолжительность: 02:10:42
    Перевод: Профессиональный (дублированный) - | Лицензия - BD CEE |
    Cубтитры: нет
    Оригинальная аудиодорожка: нет-Режиссер: Скотт Во / Scott Waugh-В ролях: Аарон Пол, Доминик Купер, Имоджен Путс, Дакота Джонсон, Майкл Китон, Рамон Родригес, Ник Чинланд, Кид Кади, Рэми Малек, Харрисон Джилбертсон...-Описание: История Тоби Маршалла, гениального автомеханика, чьей единственной отдушиной является участие в подпольных гонках. Чтобы сохранить семейную мастерскую, Тоби вынужден взять в партнеры богатого и заносчивого бывшего гонщика NASCAR Дино Брюстера. Когда дела Тоби наконец-то начинают идти в гору, Дино подставляет партнера, и Тоби обвиняют в преступлении, которого он не совершал. Спустя два года Тоби выходит из тюрьмы с мыслью о мести. Чтобы достичь своей цели, ему придется совершить невозможное и доказать, что даже в мире броских суперкаров самый невзрачный гонщик может финишировать первым.--Качество видео: BDRip | Blu-Ray EUR - HDClub |
    Формат видео: AVI
    Видео: 720x304, 23.976 fps, XviD build 73 ~1938 kbps avg, 0.370 bit/pixel
    Аудио: 48 kHz, AC3 Dolby Digital, 3/2 (L,C,R,l,r) + LFE ch, ~448.00 kbps avg
    -

    Дополнительно о фильме:

    Производство, студия дубляжа, прокат:

    Знаете ли вы, что...

    Ошибки в фильме...

    MediaInfo


    General
    Complete name : Need.for.Speed.BDRip.By_Flash.avi
    Format : AVI
    Format/Info : Audio Video Interleave
    Format profile : OpenDML
    File size : 2.19 GiB
    Duration : 2h 10mn
    Overall bit rate : 2 398 Kbps
    Writing application : VirtualDubMod 1.5.10.3 | www.virtualdub-fr.org || (build 2550/release)
    Writing library : VirtualDubMod build 2550/release
    Video
    ID : 0
    Format : MPEG-4 Visual
    Format profile : Advanced Simple@L5
    Format settings, BVOP : 1
    Format settings, QPel : No
    Format settings, GMC : No warppoints
    Format settings, Matrix : Custom
    Codec ID : XVID
    Codec ID/Hint : XviD
    Duration : 2h 10mn
    Bit rate : 1 938 Kbps
    Width : 720 pixels
    Height : 304 pixels
    Display aspect ratio : 2.35:1
    Frame rate : 23.976 fps
    Color space : YUV
    Chroma subsampling : 4:2:0
    Bit depth : 8 bits
    Scan type : Progressive
    Compression mode : Lossy
    Bits/(Pixel*Frame) : 0.369
    Stream size : 1.77 GiB (81%)
    Writing library : XviD 73
    Audio
    ID : 1
    Format : AC-3
    Format/Info : Audio Coding 3
    Mode extension : CM (complete main)
    Format settings, Endianness : Big
    Codec ID : 2000
    Duration : 2h 10mn
    Bit rate mode : Constant
    Bit rate : 448 Kbps
    Channel(s) : 6 channels
    Channel positions : Front: L C R, Side: L R, LFE
    Sampling rate : 48.0 KHz
    Bit depth : 16 bits
    Compression mode : Lossy
    Stream size : 419 MiB (19%)
    Alignment : Split accross interleaves
    Interleave, duration : 42 ms (1.00 video frame)
    Interleave, preload duration : 500 ms

    Скриншот c названием фильма

    Скриншоты

    Скачать .torrent

    Скачать торрент-файл бесплатно и на максимальной скорости!

    Как скачивать? · Что такое торрент? · Рейтинг и ограничения

    !ВНИМАНИЕ!
    Сайт не распространяет и не хранит электронные версии произведений, а занимается лишь лишь предоставлением доступа к создаваемому пользователями каталогу ссылок на торрент-файлы, которые содержат только списки хеш-сумм, убедительная просьба с жалобами обращаться напрямую к пользователю. Файлы для обмена на трекере предоставлены пользователями сайта, и администрация не несёт ответственности за их содержание. Просьба не заливать файлы, защищенные авторскими правами, а также файлы нелегального содержания!


    _________________
    [Профиль] [ЛС]
    Показать сообщения:    
    Ответить на тему

    Текущее время: Сегодня, в 00:29

    Часовой пояс: GMT + 2



    Вы не можете начинать темы
    Вы не можете отвечать на сообщения
    Вы не можете редактировать свои сообщения
    Вы не можете удалять свои сообщения
    Вы не можете голосовать в опросах
    Вы не можете прикреплять файлы к сообщениям
    Вы не можете скачивать файлы