BitTorrentTracker PerecTracker.org
BitTorrentTracker PerecTracker.org
    
Регистрация  ·  Вход
 
 · 
Забыли пароль?

  • Кантемир / Kantemir (Бен Сэмюэлс / Ben Samuels) [2014 г., США, ужасы, триллер, WEB-DLRip] MVO

    Ответить на тему
     
    Автор Сообщение

    Light

    Создавать темы 27-Мар-2015 22:54

           

    [Цитировать]

    Кантемир / Kantemir
    Страна: США
    Жанр: ужасы, триллер
    Год выпуска: 2014
    Продолжительность: 01:32:53
    Перевод: Профессиональный (многоголосый закадровый)
    Оригинальная аудиодорожка: нет
    Cубтитры: нет
    Режиссер: Мэттью Спрэдлин / Matthew Spradlin
    В ролях:Роберт Инглунд, Дайан Кэри, Дэниэл Гади, Джастин Гриффитс, Стюарт Стоун, Бинго О’Мэлли, Джошуа Риз, Синди Джексон, Шон Дерри, Нил Сэмюэлс
    Описание:Величественная усадьба, в которой некогда проживала большая семья местных богачей, стала объектом многочисленных страшных слухов и домыслов. Жители близлежащих деревень были уверены, что в огромном доме произошли трагические события, дающие о себе знать и по сей день. Группу режиссёров, сценаристов и актеров строго-настрого предупредили, чтобы они не использовали особняк в качестве съемочной площадки. Но скептически настроенные горожане не сочли нужным прислушаться к словам суеверных провинциалов. Усадьба покорила их мертвенной тишиной, куда не проникал ни единый шорох с улицы. Идеальное место для будущего фильма! Однако предупреждающие слова оказались верны – в доме действительно кто-то был. И этому кто-то явно не понравился приход незваных гостей.

    Качество: WEB-DLRip
    Контейнер: AVI
    Видео: 720x304 (2.37:1), 23.976 fps, XviD build 50 ~2269 kbps avg, 0.43 bit/pixel
    Аудио: 48 kHz, AC3 Dolby Digital, 2/0 (L,R) ch, ~192 kbps

    MI

    Общее
    Полное имя : C:\Users\Вячеслав\Downloads\Кантемир _.WEB-DLRip _Некул.avi
    Формат : AVI
    Формат/Информация : Audio Video Interleave
    Размер файла : 1,45 Гбайт
    Продолжительность : 1 ч. 24 м.
    Общий поток : 2471 Кбит/сек
    Программа кодирования : VirtualDubMod 1.5.10.3 | www.virtualdub-fr.org || (build 2550/release)
    Библиотека кодирования : VirtualDubMod build 2550/release
    Видео
    Идентификатор : 0
    Формат : MPEG-4 Visual
    Профиль формата : Advanced Simple@L5
    Параметр BVOP формата : 1
    Параметр QPel формата : Нет
    Параметр GMC формата : Без точки перехода
    Параметр матрицы формата : Default (MPEG)
    Идентификатор кодека : XVID
    Идентификатор кодека/Подсказка : XviD
    Продолжительность : 1 ч. 24 м.
    Битрейт : 2269 Кбит/сек
    Ширина : 720 пикселей
    Высота : 304 пикселя
    Соотношение сторон : 2,35:1
    Частота кадров : 23,976 кадра/сек
    Цветовое пространство : YUV
    Субдискретизация насыщенности : 4:2:0
    Битовая глубина : 8 бит
    Тип развёртки : Прогрессивная
    Метод сжатия : С потерями
    Бит/(Пиксели*Кадры) : 0.432
    Размер потока : 1,33 Гбайт (92%)
    Библиотека кодирования : XviD 1.2.1 (UTC 2008-12-04)
    Аудио
    Идентификатор : 1
    Формат : AC-3
    Формат/Информация : Audio Coding 3
    Расширение режима : CM (complete main)
    Параметр Endianness формата : Big
    Идентификатор кодека : 2000
    Продолжительность : 1 ч. 24 м.
    Вид битрейта : Постоянный
    Битрейт : 192 Кбит/сек
    Каналы : 2 канала
    Расположение каналов : Front: L R
    Частота : 48,0 КГц
    Битовая глубина : 16 бит
    Метод сжатия : С потерями
    Размер потока : 116 Мбайт (8%)
    Выравнивание : Разделение по промежуткам
    Продолжительность промежутка : 42 мс. (1,00 видеокадр)
    Время предзагрузки промежутка : 500 мс.

    Скриншоты

    Скачать .torrent

    Скачать торрент-файл бесплатно и на максимальной скорости!

    Как скачивать? · Что такое торрент? · Рейтинг и ограничения

    !ВНИМАНИЕ!
    Сайт не распространяет и не хранит электронные версии произведений, а занимается лишь лишь предоставлением доступа к создаваемому пользователями каталогу ссылок на торрент-файлы, которые содержат только списки хеш-сумм, убедительная просьба с жалобами обращаться напрямую к пользователю. Файлы для обмена на трекере предоставлены пользователями сайта, и администрация не несёт ответственности за их содержание. Просьба не заливать файлы, защищенные авторскими правами, а также файлы нелегального содержания!


    _________________
    [Профиль] [ЛС]
    Показать сообщения:    
    Ответить на тему

    Текущее время: Сегодня, в 04:42

    Часовой пояс: GMT + 2



    Вы не можете начинать темы
    Вы не можете отвечать на сообщения
    Вы не можете редактировать свои сообщения
    Вы не можете удалять свои сообщения
    Вы не можете голосовать в опросах
    Вы не можете прикреплять файлы к сообщениям
    Вы не можете скачивать файлы