BitTorrentTracker PerecTracker.org
BitTorrentTracker PerecTracker.org
    
Регистрация  ·  Вход
 
 · 
Забыли пароль?

  • Проклятое место / Lost Place (Торстен Клайн / Thorsten Klein) [2013, Германия, ужасы, триллер, детектив, HDTVRip] MVO

    Ответить на тему
     
    Автор Сообщение

    Light

    Создавать темы 27-Мар-2015 06:06

           

    [Цитировать]

    Проклятое место / Lost Place
    Страна: Германия
    Жанр: ужасы, триллер, детектив
    Год выпуска: 2013
    Продолжительность: 01:37:01
    Перевод: Профессиональный (многоголосый закадровый)
    Cубтитры: нет
    Режиссер: Торстен Клайн / Thorsten Klein
    В ролях: Франсуа Геск, Ютта-Мерле Бёрнсен, Йозефина Пройсс, Пит Буковски, Анатоль Таубман, Бьорн Бугри, Георг Каммерер, Рике Экерман
    Описание: Четверо подростков отправляются на заброшенную военную базу, где некогда проводились эксперименты с климатическим оружием. Они считают происходящее занятным приключением, но с ними начинают происходить странные и страшные вещи…
    Доп. информация: За запись исходника спасибо Romanok8691
    Сэмпл: https://yadi.sk/i/-AyxrnP2fWCbd
    Релиз
    Качество видео: HDTVRip [Исходник 1080i]
    Формат видео: AVI
    Видео: 720x304 (2.37:1), 25 fps, XviD build 50 ~1899 kbps avg, 0.35 bit/pixel
    Аудио: 48 kHz, AC3 Dolby Digital, 2/0 (L,R) ch, ~192 kbps

    MediaInfo

    Проклятое место - Lost Place [by Edich2].avi
    Format : AVI
    Format/Info : Audio Video Interleave
    File size : 1.42 GiB
    Duration : 1h 37mn
    Overall bit rate : 2 102 Kbps
    Movie name : Проклятое место - Lost Place [by Edich2]
    Director : by Edich2
    Writing application : VirtualDubMod 1.5.10.3 | www.virtualdub-fr.org || (build 2550/release)
    Comment : RuTracker.org
    Video
    ID : 0
    Format : MPEG-4 Visual
    Format profile : Advanced Simple@L5
    Format settings, BVOP : 1
    Format settings, QPel : No
    Format settings, GMC : No warppoints
    Format settings, Matrix : Default (MPEG)
    Codec ID : XVID
    Codec ID/Hint : XviD
    Duration : 1h 37mn
    Bit rate : 1 900 Kbps
    Width : 720 pixels
    Height : 304 pixels
    Display aspect ratio : 2.35:1
    Frame rate : 25.000 fps
    Color space : YUV
    Chroma subsampling : 4:2:0
    Bit depth : 8 bits
    Scan type : Progressive
    Compression mode : Lossy
    Bits/(Pixel*Frame) : 0.347
    Stream size : 1.29 GiB (90%)
    Writing library : XviD 1.2.1 (UTC 2008-12-04)
    Audio
    ID : 1
    Format : AC-3
    Format/Info : Audio Coding 3
    Mode extension : CM (complete main)
    Format settings, Endianness : Big
    Codec ID : 2000
    Duration : 1h 37mn
    Bit rate mode : Constant
    Bit rate : 192 Kbps
    Channel(s) : 2 channels
    Channel positions : Front: L R
    Sampling rate : 48.0 KHz
    Bit depth : 16 bits
    Compression mode : Lossy
    Stream size : 133 MiB (9%)
    Alignment : Split accross interleaves
    Interleave, duration : 40 ms (1.00 video frame)
    Interleave, preload duration : 500 ms

    Скриншоты



    Скачать .torrent

    Скачать торрент-файл бесплатно и на максимальной скорости!

    Как скачивать? · Что такое торрент? · Рейтинг и ограничения

    !ВНИМАНИЕ!
    Сайт не распространяет и не хранит электронные версии произведений, а занимается лишь лишь предоставлением доступа к создаваемому пользователями каталогу ссылок на торрент-файлы, которые содержат только списки хеш-сумм, убедительная просьба с жалобами обращаться напрямую к пользователю. Файлы для обмена на трекере предоставлены пользователями сайта, и администрация не несёт ответственности за их содержание. Просьба не заливать файлы, защищенные авторскими правами, а также файлы нелегального содержания!


    _________________
    [Профиль] [ЛС]
    Показать сообщения:    
    Ответить на тему

    Текущее время: Сегодня, в 18:58

    Часовой пояс: GMT + 2



    Вы не можете начинать темы
    Вы не можете отвечать на сообщения
    Вы не можете редактировать свои сообщения
    Вы не можете удалять свои сообщения
    Вы не можете голосовать в опросах
    Вы не можете прикреплять файлы к сообщениям
    Вы не можете скачивать файлы