Register  ·  Log in
Forgot password?

  • Проклятое место / Lost Place (Торстен Клайн / Thorsten Klein) [2013, Германия, ужасы, триллер, детектив, HDTVRip] MVO

    Reply to topic
    Author Message


    Post 27-Mar-2015 07:06



    Проклятое место / Lost Place
    Страна: Германия
    Жанр: ужасы, триллер, детектив
    Год выпуска: 2013
    Продолжительность: 01:37:01
    Перевод: Профессиональный (многоголосый закадровый)
    Cубтитры: нет
    Режиссер: Торстен Клайн / Thorsten Klein
    В ролях: Франсуа Геск, Ютта-Мерле Бёрнсен, Йозефина Пройсс, Пит Буковски, Анатоль Таубман, Бьорн Бугри, Георг Каммерер, Рике Экерман
    Описание: Четверо подростков отправляются на заброшенную военную базу, где некогда проводились эксперименты с климатическим оружием. Они считают происходящее занятным приключением, но с ними начинают происходить странные и страшные вещи…
    Доп. информация: За запись исходника спасибо Romanok8691
    Качество видео: HDTVRip [Исходник 1080i]
    Формат видео: AVI
    Видео: 720x304 (2.37:1), 25 fps, XviD build 50 ~1899 kbps avg, 0.35 bit/pixel
    Аудио: 48 kHz, AC3 Dolby Digital, 2/0 (L,R) ch, ~192 kbps


    Проклятое место - Lost Place [by Edich2].avi
    Format : AVI
    Format/Info : Audio Video Interleave
    File size : 1.42 GiB
    Duration : 1h 37mn
    Overall bit rate : 2 102 Kbps
    Movie name : Проклятое место - Lost Place [by Edich2]
    Director : by Edich2
    Writing application : VirtualDubMod | || (build 2550/release)
    Comment :
    ID : 0
    Format : MPEG-4 Visual
    Format profile : Advanced Simple@L5
    Format settings, BVOP : 1
    Format settings, QPel : No
    Format settings, GMC : No warppoints
    Format settings, Matrix : Default (MPEG)
    Codec ID : XVID
    Codec ID/Hint : XviD
    Duration : 1h 37mn
    Bit rate : 1 900 Kbps
    Width : 720 pixels
    Height : 304 pixels
    Display aspect ratio : 2.35:1
    Frame rate : 25.000 fps
    Color space : YUV
    Chroma subsampling : 4:2:0
    Bit depth : 8 bits
    Scan type : Progressive
    Compression mode : Lossy
    Bits/(Pixel*Frame) : 0.347
    Stream size : 1.29 GiB (90%)
    Writing library : XviD 1.2.1 (UTC 2008-12-04)
    ID : 1
    Format : AC-3
    Format/Info : Audio Coding 3
    Mode extension : CM (complete main)
    Format settings, Endianness : Big
    Codec ID : 2000
    Duration : 1h 37mn
    Bit rate mode : Constant
    Bit rate : 192 Kbps
    Channel(s) : 2 channels
    Channel positions : Front: L R
    Sampling rate : 48.0 KHz
    Bit depth : 16 bits
    Compression mode : Lossy
    Stream size : 133 MiB (9%)
    Alignment : Split accross interleaves
    Interleave, duration : 40 ms (1.00 video frame)
    Interleave, preload duration : 500 ms


    Download .torrent

    Download free and at maximum speed!

    How to Download? · What is a torrent? · Ratings and Limitations

    The site does not extend and does not store electronic(digital) versions of products, and only gives access to a reference catalogue created by users on torrent-files which contain only lists of the hash-sums, the earnest entreaty, with complaints(abuse) to access directly to the user. Files for an exchange on tracker are given by users of a site, and the administration does not bear the responsibility for their maintenance. The request to not fill in the files protected by copyrights, and also files of the illegal maintenance!

    [Profile] [PM]
    Display posts from previous:    
    Reply to topic

    The time now is: Today 08:38

    All times are GMT + 3 Hours

    You cannot post new topics in this forum
    You cannot reply to topics in this forum
    You cannot edit your posts in this forum
    You cannot delete your posts in this forum
    You cannot vote in polls in this forum
    You cannot attach files in this forum
    You cannot download files in this forum