Register  ·  Log in
Forgot password?

  • Рождественская путаница / A Very Merry Mix-Up (Джонатан Райт / Jonathan Wright) [2013, Канада, США, мелодрама, HDTVRip] MVO

    Reply to topic
    Author Message


    Post 27-Mar-2015 07:06



    Рождественская путаница / A Very Merry Mix-Up
    Страна: Канада, США
    Жанр: мелодрама
    Год выпуска: 2013
    Продолжительность: 01:27:58
    Перевод: Профессиональный (многоголосый закадровый)
    Cубтитры: нет
    Режиссер: Джонатан Райт / Jonathan Wright
    В ролях: Алисия Уитт, Марк Виб, Лоуренс Дэйн, Скотт Гибсон, Сьюзэн Хоган, Ричард Фицпатрик
    Описание: Энергичный молодой бизнесмен Уилл приглашает свою невесту встретить рождество у его родителей. Красотка Элис, которой предстоит увидеть своих будущих свёкров впервые, изрядно нервничает перед поездкой. Поводов для беспокойства со временем только прибавляется: самолет Элис прилетает раньше, её багаж теряется в аэропорте, а телефон выходит из строя.
    Доп. информация: За запись исходника спасибо Romanok8691
    Качество видео: HDTVRip [Исходник 1080i]
    Формат видео: AVI
    Видео: 720x400 (1.80:1), 25 fps, XviD build 50 ~2023 kbps avg, 0.28 bit/pixel
    Аудио: 48 kHz, AC3 Dolby Digital, 2/0 (L,R) ch, ~192 kbps


    Рождественская путаница - A Very Merry Mix-Up [by Edich2].avi
    Format : AVI
    Format/Info : Audio Video Interleave
    File size : 1.37 GiB
    Duration : 1h 27mn
    Overall bit rate : 2 225 Kbps
    Movie name : Рождественская путаница - A Very Merry Mix-Up [by Edich2]
    Director : by Edich2
    Writing application : VirtualDubMod | || (build 2550/release)
    Comment :
    ID : 0
    Format : MPEG-4 Visual
    Format profile : Advanced Simple@L5
    Format settings, BVOP : 1
    Format settings, QPel : No
    Format settings, GMC : No warppoints
    Format settings, Matrix : Default (MPEG)
    Codec ID : XVID
    Codec ID/Hint : XviD
    Duration : 1h 27mn
    Bit rate : 2 024 Kbps
    Width : 720 pixels
    Height : 400 pixels
    Display aspect ratio : 16:9
    Frame rate : 25.000 fps
    Color space : YUV
    Chroma subsampling : 4:2:0
    Bit depth : 8 bits
    Scan type : Progressive
    Compression mode : Lossy
    Bits/(Pixel*Frame) : 0.281
    Stream size : 1.24 GiB (91%)
    Writing library : XviD 1.2.1 (UTC 2008-12-04)
    ID : 1
    Format : AC-3
    Format/Info : Audio Coding 3
    Mode extension : CM (complete main)
    Format settings, Endianness : Big
    Codec ID : 2000
    Duration : 1h 27mn
    Bit rate mode : Constant
    Bit rate : 192 Kbps
    Channel(s) : 2 channels
    Channel positions : Front: L R
    Sampling rate : 48.0 KHz
    Bit depth : 16 bits
    Compression mode : Lossy
    Stream size : 121 MiB (9%)
    Alignment : Split accross interleaves
    Interleave, duration : 40 ms (1.00 video frame)
    Interleave, preload duration : 500 ms


    Download .torrent

    Download free and at maximum speed!

    How to Download? · What is a torrent? · Ratings and Limitations

    The site does not extend and does not store electronic(digital) versions of products, and only gives access to a reference catalogue created by users on torrent-files which contain only lists of the hash-sums, the earnest entreaty, with complaints(abuse) to access directly to the user. Files for an exchange on tracker are given by users of a site, and the administration does not bear the responsibility for their maintenance. The request to not fill in the files protected by copyrights, and also files of the illegal maintenance!

    [Profile] [PM]
    Display posts from previous:    
    Reply to topic

    The time now is: Today 10:39

    All times are GMT + 3 Hours

    You cannot post new topics in this forum
    You cannot reply to topics in this forum
    You cannot edit your posts in this forum
    You cannot delete your posts in this forum
    You cannot vote in polls in this forum
    You cannot attach files in this forum
    You cannot download files in this forum