BitTorrentTracker PerecTracker.org
BitTorrentTracker PerecTracker.org
    
Регистрация  ·  Вход
 
 · 
Забыли пароль?

  • Цирк (Григорий Александров) [1936, комедия, BDRip-AVC] цветной

    Ответить на тему
     
    Автор Сообщение

    Light

    Создавать темы 27-Мар-2015 01:54

           

    [Цитировать]

    Цирк
    Жанр: комедия
    Год выпуска: 1936
    Продолжительность: 01:28:34
    Режиссер: Григорий Александров
    В ролях: Любовь Орлова, Евгения Мельникова, Владимир Володин, Сергей Столяров, Павел Массальский, Александр Комиссаров, Фёдор Курихин, Сергей Антимонов, Николай Отто, А. Панова, Б. Карлин, Джим Паттерсон, Марк Цибульский, Альфонс Лутц, Павел Герага, Лев Свердлин, Соломон Михоэлс, Владимир Канделаки, Вейланд Родд старший, Н.Высоцкая, Лев Иванов, Эммануил Геллер
    Описание: Фирменная музыкальная комедия Александрова в созданном им стиле советского "голливуда" на тему советского цирка. Фильм стоило снимать уже только потому, что в нем звучала музыка Дунаевского и снималась секс-символ сталинской эпохи Любовь Орлова.
    Источник: http://perectracker.org/viewtopic.php?t=4131095
    семпл: https://www.sendspace.com/file/9vubij
    Качество видео: BDRip-AVC
    Формат видео: MKV
    Видео: 860x720 (1.2:1), 25 fps, AVC (H.264), 3143 kbps avg, 0.203 bit/pixel
    Аудио: 48 kHz, AC3, 2 ch, 384 kbps avg

    MI

    Общее
    Уникальный идентификатор : 247874319513273703192723508590859810584 (0xBA7ADB812812A47B9D8CE74623847718)
    Полное имя : D:\КИНО\Цирк.mkv
    Формат : Matroska
    Версия формата : Version 4 / Version 2
    Размер файла : 2,18 Гбайт
    Продолжительность : 1 ч. 28 м.
    Общий поток : 3530 Кбит/сек
    Дата кодирования : UTC 2015-03-25 12:31:29
    Программа кодирования : mkvmerge v7.2.0 ('On Every Street') 32bit built on Sep 13 2014 15:42:11
    Библиотека кодирования : libebml v1.3.0 + libmatroska v1.4.1
    _STATISTICS_WRITING_APP : mkvmerge v7.2.0 ('On Every Street') 32bit built on Sep 13 2014 15:42:11
    _STATISTICS_WRITING_DATE_UTC : 2015-03-25 12:31:29
    _STATISTICS_TAGS : BPS DURATION NUMBER_OF_FRAMES NUMBER_OF_BYTES
    DURATION : 01:28:34.720000000
    NUMBER_OF_FRAMES : 166085
    NUMBER_OF_BYTES : 255106560
    Видео
    Идентификатор : 1
    Формат : AVC
    Формат/Информация : Advanced Video Codec
    Профиль формата : High@L4.1
    Параметр CABAC формата : Да
    Параметр ReFrames формата : 13 кадров
    Идентификатор кодека : V_MPEG4/ISO/AVC
    Продолжительность : 1 ч. 28 м.
    Битрейт : 3143 Кбит/сек
    Ширина : 860 пикселей
    Высота : 720 пикселей
    Соотношение сторон : 1,194
    Режим частоты кадров : Постоянный
    Частота кадров : 25,000 кадров/сек
    Цветовое пространство : YUV
    Субдискретизация насыщенности : 4:2:0
    Битовая глубина : 8 бит
    Тип развёртки : Прогрессивная
    Бит/(Пиксели*Кадры) : 0.203
    Размер потока : 1,90 Гбайт (87%)
    Библиотека кодирования : x264 core 142 r2431 ac76440
    Настройки программы : cabac=1 / ref=13 / deblock=1:-2:-1 / analyse=0x3:0x133 / me=umh / subme=10 / psy=1 / psy_rd=1.00:0.10 / mixed_ref=1 / me_range=32 / chroma_me=1 / trellis=2 / 8x8dct=1 / cqm=0 / deadzone=21,11 / fast_pskip=0 / chroma_qp_offset=-3 / threads=3 / lookahead_threads=1 / sliced_threads=0 / nr=0 / decimate=1 / interlaced=0 / bluray_compat=0 / constrained_intra=0 / bframes=10 / b_pyramid=2 / b_adapt=2 / b_bias=0 / direct=3 / weightb=1 / open_gop=0 / weightp=2 / keyint=250 / keyint_min=25 / scenecut=40 / intra_refresh=0 / rc_lookahead=60 / rc=2pass / mbtree=1 / bitrate=3143 / ratetol=1.0 / qcomp=0.60 / qpmin=10 / qpmax=51 / qpstep=4 / cplxblur=20.0 / qblur=0.5 / vbv_maxrate=50000 / vbv_bufsize=50000 / nal_hrd=none / filler=0 / ip_ratio=1.40 / aq=1:1.00
    Default : Да
    Forced : Нет
    Аудио
    Идентификатор : 2
    Формат : AC-3
    Формат/Информация : Audio Coding 3
    Расширение режима : CM (complete main)
    Параметр Endianness формата : Big
    Идентификатор кодека : A_AC3
    Продолжительность : 1 ч. 28 м.
    Вид битрейта : Постоянный
    Битрейт : 384 Кбит/сек
    Каналы : 2 канала
    Расположение каналов : Front: L R
    Частота : 48,0 КГц
    Битовая глубина : 16 бит
    Метод сжатия : С потерями
    Размер потока : 243 Мбайт (11%)
    Default : Да
    Forced : Нет

    лог

    ---[Information] [25.03.2015 0:55:30] avs [info]: 860x720p 1:1 @ 25/1 fps (cfr)
    ---[Information] [25.03.2015 0:55:30] x264 [info]: using SAR=1/1
    ---[Information] [25.03.2015 0:55:30] x264 [info]: using cpu capabilities: MMX2 SSE2Fast LZCNT
    ---[Information] [25.03.2015 0:55:30] x264 [info]: profile High, level 4.1
    ---[Information] [25.03.2015 14:41:21] x264 [info]: frame I:827 Avg QP:17.87 size: 77221
    ---[Information] [25.03.2015 14:41:21] x264 [info]: frame P:28322 Avg QP:20.97 size: 32110
    ---[Information] [25.03.2015 14:41:21] x264 [info]: frame B:103719 Avg QP:23.54 size: 10752
    ---[Information] [25.03.2015 14:41:21] x264 [info]: consecutive B-frames: 1.1% 1.2% 6.5% 27.4% 21.3% 40.3% 1.5% 0.3% 0.2% 0.0% 0.2%
    ---[Information] [25.03.2015 14:41:21] x264 [info]: mb I I16..4: 3.1% 85.2% 11.7%
    ---[Information] [25.03.2015 14:41:21] x264 [info]: mb P I16..4: 0.6% 14.1% 1.2% P16..4: 41.8% 24.8% 14.4% 0.3% 0.1% skip: 2.8%
    ---[Information] [25.03.2015 14:41:21] x264 [info]: mb B I16..4: 0.0% 1.5% 0.1% B16..8: 41.4% 11.0% 3.0% direct: 7.6% skip:35.3% L0:42.2% L1:44.7% BI:13.1%
    ---[Information] [25.03.2015 14:41:21] x264 [info]: 8x8 transform intra:88.7% inter:71.5%
    ---[Information] [25.03.2015 14:41:21] x264 [info]: direct mvs spatial:99.3% temporal:0.7%
    ---[Information] [25.03.2015 14:41:21] x264 [info]: coded y,uvDC,uvAC intra: 94.0% 56.0% 22.8% inter: 32.8% 11.4% 0.7%
    ---[Information] [25.03.2015 14:41:21] x264 [info]: i16 v,h,dc,p: 27% 16% 8% 48%
    ---[Information] [25.03.2015 14:41:21] x264 [info]: i8 v,h,dc,ddl,ddr,vr,hd,vl,hu: 10% 7% 6% 10% 15% 14% 14% 12% 12%
    ---[Information] [25.03.2015 14:41:21] x264 [info]: i4 v,h,dc,ddl,ddr,vr,hd,vl,hu: 9% 6% 2% 9% 17% 17% 15% 13% 12%
    ---[Information] [25.03.2015 14:41:21] x264 [info]: i8c dc,h,v,p: 39% 28% 21% 12%
    ---[Information] [25.03.2015 14:41:21] x264 [info]: Weighted P-Frames: Y:35.1% UV:4.0%
    ---[Information] [25.03.2015 14:41:21] x264 [info]: ref P L0: 36.4% 12.7% 16.0% 7.9% 5.8% 4.5% 3.9% 2.5% 2.2% 2.0% 1.8% 1.7% 1.7% 0.9% 0.0%
    ---[Information] [25.03.2015 14:41:21] x264 [info]: ref B L0: 80.4% 8.2% 3.3% 2.0% 1.4% 1.2% 1.0% 0.7% 0.6% 0.6% 0.4% 0.3%
    ---[Information] [25.03.2015 14:41:21] x264 [info]: ref B L1: 97.0% 3.0%
    ---[Information] [25.03.2015 14:41:21] x264 [info]: kb/s:3143.71
    ---[Information] [25.03.2015 14:41:21] encoded 132868 frames, 2.68 fps, 3143.71 kb/s

    скриншоты

    Скачать .torrent

    Скачать торрент-файл бесплатно и на максимальной скорости!

    Как скачивать? · Что такое торрент? · Рейтинг и ограничения

    !ВНИМАНИЕ!
    Сайт не распространяет и не хранит электронные версии произведений, а занимается лишь лишь предоставлением доступа к создаваемому пользователями каталогу ссылок на торрент-файлы, которые содержат только списки хеш-сумм, убедительная просьба с жалобами обращаться напрямую к пользователю. Файлы для обмена на трекере предоставлены пользователями сайта, и администрация не несёт ответственности за их содержание. Просьба не заливать файлы, защищенные авторскими правами, а также файлы нелегального содержания!


    _________________
    [Профиль] [ЛС]
    Показать сообщения:    
    Ответить на тему

    Текущее время: Сегодня, в 20:25

    Часовой пояс: GMT + 2



    Вы не можете начинать темы
    Вы не можете отвечать на сообщения
    Вы не можете редактировать свои сообщения
    Вы не можете удалять свои сообщения
    Вы не можете голосовать в опросах
    Вы не можете прикреплять файлы к сообщениям
    Вы не можете скачивать файлы