Register  ·  Log in
Forgot password?

  • Бёрдмэн / Birdman (Алехандро Гонсалес Иньярриту / Alejandro González Iñárritu) [2014, Драма, комедия, BDRip] AVO (Ю.Сербин)

    Reply to topic
    Author Message


    Post 27-Mar-2015 02:54



    Бёрдмэн / Birdman-Год выпуска: 2014
    Выпущено: США, Канада / New Regency Pictures
    Жанр: драма, комедия
    Продолжительность: 01:59:17
    Перевод: Авторский (одноголосный) [Ю.Сербин]

    Cубтитры: нет-Режиссер:
    Алехандро Гонсалес Иньярриту / Alejandro González Iñárritu-В ролях:
    Майкл Китон (Riggan), Эдвард Нортон (Mike), Эмма Стоун (Sam), Наоми Уоттс (Lesley), Зак Галифианакис (Jake), Андреа Райзборо (Laura), Эми Райан (Sylvia), Линдси Дункан (Tabitha), Дэмиэн Янг (Gabriel), Джереми Шамос (Ralph), Кенни Чин (Korean Grocer)
    В центре сюжета бывший актер, некогда сыгравший роль популярного супергероя Бёрдмэна, и теперь, переступая через свое эго, он решает принять участие в новой бродвейской постановке с целью вернуть себе былую славу, блеск и величие.
    Качество: BDRip [Спасибо dalemake]
    Формат: AVI
    Видео кодек: XviD
    Аудио кодек: AC3
    Видео: 704x384 (1.83:1), 23.976 fps, XviD build 73 ~1356 kbps avg, 0.21 bit/pixel
    Аудио: 48 kHz, AC3 Dolby Digital, 3/2 (L,C,R,l,r) + LFE ch, ~384.00 kbps avg



    Complete name                    : E:\INTERNET\Birdman.2014.BDRip.[AVO](Serbin).Km.avi
    Format                           : AVI
    Format/Info                      : Audio Video Interleave
    File size                        : 1.46 GiB
    Duration                         : 1h 59mn
    Overall bit rate                 : 1 750 Kbps
    Writing application              : VirtualDubMod (build 2550/release)
    Writing library                  : VirtualDubMod build 2550/release
    ID                               : 0
    Format                           : MPEG-4 Visual
    Format profile                   : Advanced Simple@L5
    Format settings, BVOP            : 1
    Format settings, QPel            : No
    Format settings, GMC             : No warppoints
    Format settings, Matrix          : Custom
    Codec ID                         : XVID
    Codec ID/Hint                    : XviD
    Duration                         : 1h 59mn
    Bit rate                         : 1 357 Kbps
    Width                            : 704 pixels
    Height                           : 384 pixels
    Display aspect ratio             : 16:9
    Frame rate                       : 23.976 fps
    Color space                      : YUV
    Chroma subsampling               : 4:2:0
    Bit depth                        : 8 bits
    Scan type                        : Progressive
    Compression mode                 : Lossy
    Bits/(Pixel*Frame)               : 0.209
    Stream size                      : 1.13 GiB (78%)
    Writing library                  : XviD 73
    ID                               : 1
    Format                           : AC-3
    Format/Info                      : Audio Coding 3
    Mode extension                   : CM (complete main)
    Codec ID                         : 2000
    Duration                         : 1h 59mn
    Bit rate mode                    : Constant
    Bit rate                         : 384 Kbps
    Channel(s)                       : 6 channels
    Channel positions                : Front: L C R, Side: L R, LFE
    Sampling rate                    : 48.0 KHz
    Bit depth                        : 16 bits
    Compression mode                 : Lossy
    Stream size                      : 328 MiB (22%)
    Alignment                        : Split accross interleaves
    Interleave, duration             : 42 ms (1.00 video frame)
    Interleave, preload duration     : 500 ms
    Download .torrent

    Download free and at maximum speed!

    How to Download? · What is a torrent? · Ratings and Limitations

    The site does not extend and does not store electronic(digital) versions of products, and only gives access to a reference catalogue created by users on torrent-files which contain only lists of the hash-sums, the earnest entreaty, with complaints(abuse) to access directly to the user. Files for an exchange on tracker are given by users of a site, and the administration does not bear the responsibility for their maintenance. The request to not fill in the files protected by copyrights, and also files of the illegal maintenance!

    [Profile] [PM]
    Display posts from previous:    
    Reply to topic

    The time now is: Today 22:34

    All times are GMT + 3 Hours

    You cannot post new topics in this forum
    You cannot reply to topics in this forum
    You cannot edit your posts in this forum
    You cannot delete your posts in this forum
    You cannot vote in polls in this forum
    You cannot attach files in this forum
    You cannot download files in this forum