BitTorrentTracker PerecTracker.org
BitTorrentTracker PerecTracker.org
    
Регистрация  ·  Вход
 
 · 
Забыли пароль?

  • Секс-диета / Диетический секс / Diet of sex (Боржа Гонзалез / Borja González) [2014, Испания, драма, комедия, эротика, HDRip] Sub Rus + Original Spa

    Ответить на тему
     
    Автор Сообщение

    Light

    Создавать темы 27-Мар-2015 01:54

           

    [Цитировать]

    Секс-диета / Диетический секс / Diet of sex
    Страна: Испания
    Жанр: драма, комедия, эротика
    Год выпуска: 2014
    Продолжительность: 01:10:41
    Перевод: Субтитры Antonio
    Cубтитры: русские
    Оригинальная аудиодорожка: испанский
    Режиссер: Боржа Гонзалез / Borja González
    В ролях: Альберто Каскуэро, Антон Дамаперейра, Че Мариньо, Ракель Мартинес
    Описание: У Агаты и Марка проблемы в интимной жизни. Агата не получает наслаждения от секса. Опытный сексолог советует паре попробовать особую возбуждающую диету...

    Сэмпл: http://multi-up.com
    Качество видео: HDRip
    Формат видео: AVI
    Видео: Xvid 720x304 23.98fps 2362Kbps
    Аудио: MPEG Audio Layer 3 48000Hz stereo 224Kbps

    Фрагмент субтитров

    1
    00:03:20,770 --> 00:03:23,229
    Блин, напугал!
    2
    00:03:24,190 --> 00:03:26,189
    Как прошёл день?
    3
    00:03:26,190 --> 00:03:28,439
    И зачем я с ним живу?
    4
    00:03:28,990 --> 00:03:31,199
    Хорошо, а у тебя?
    5
    00:03:32,780 --> 00:03:34,159
    Как всегда.
    6
    00:03:34,160 --> 00:03:37,999
    С тех пор, как я встретил
    эту интересную девушку...
    7
    00:03:38,410 --> 00:03:41,369
    которую, кстати, чуть не сбил.
    8
    00:03:41,370 --> 00:03:45,459
    Слава Богу, с ней всё в порядке.
    9
    00:03:45,460 --> 00:03:48,549
    Ну и что же в ней интересного?
    10
    00:03:48,550 --> 00:03:50,629
    Ну, я не знаю...
    11
    00:03:50,730 --> 00:03:52,157
    Просто возникает интерес,
    12
    00:03:52,159 --> 00:03:56,104
    ты хочешь узнать её получше.
    13
    00:03:58,470 --> 00:04:02,899
    Ты идиот!
    Все одинаковы, думают лишь о сексе.
    14
    00:04:11,450 --> 00:04:14,409
    Я купил мороженого.
    15
    00:04:15,030 --> 00:04:18,619
    Не знал, что ты любишь,
    выбрал классику.
    16
    00:04:20,330 --> 00:04:23,289
    Шоколад или клубника?
    17
    00:04:24,250 --> 00:04:26,629
    Шоколад пойдёт.
    18
    00:04:26,630 --> 00:04:30,209
    Окей, только не заменяй им секс.
    19
    00:04:30,210 --> 00:04:35,759
    Боже, я не могу.
    Надо его сбагрить, но что сказать?
    20
    00:04:40,100 --> 00:04:41,729
    Спасибо, милый.

    MediaInfo

    General
    Complete name : D:\TORRENTS\Diet of Sex\Секс-диета.avi
    Format : AVI
    Format/Info : Audio Video Interleave
    File size : 1.41 GiB
    Duration : 1h 11mn
    Overall bit rate : 2 586 Kbps
    Video
    ID : 0
    Format : MPEG-4 Visual
    Format profile : Advanced Simple@L5
    Format settings, BVOP : 2
    Format settings, QPel : No
    Format settings, GMC : No warppoints
    Format settings, Matrix : Default (H.263)
    Codec ID : XVID
    Codec ID/Hint : XviD
    Duration : 1h 10mn
    Bit rate : 2 362 Kbps
    Width : 720 pixels
    Height : 304 pixels
    Display aspect ratio : 2.35:1
    Frame rate : 23.976 fps
    Color space : YUV
    Chroma subsampling : 4:2:0
    Bit depth : 8 bits
    Scan type : Progressive
    Compression mode : Lossy
    Bits/(Pixel*Frame) : 0.498
    Stream size : 1.29 GiB (92%)
    Writing library : XviD 64
    Audio
    ID : 1
    Format : MPEG Audio
    Format version : Version 1
    Format profile : Layer 3
    Mode : Joint stereo
    Codec ID : 55
    Codec ID/Hint : MP3
    Duration : 1h 11mn
    Source duration : 1h 10mn
    Bit rate mode : Constant
    Bit rate : 224 Kbps
    Channel(s) : 2 channels
    Sampling rate : 48.0 KHz
    Compression mode : Lossy
    Stream size : 113 MiB (8%)
    Alignment : Aligned on interleaves
    Interleave, duration : 42 ms (1.00 video frame)
    Writing library : LAMEDЙ

    Скриншот c названием фильма

    Скриншоты

    Скачать .torrent

    Скачать торрент-файл бесплатно и на максимальной скорости!

    Как скачивать? · Что такое торрент? · Рейтинг и ограничения

    !ВНИМАНИЕ!
    Сайт не распространяет и не хранит электронные версии произведений, а занимается лишь лишь предоставлением доступа к создаваемому пользователями каталогу ссылок на торрент-файлы, которые содержат только списки хеш-сумм, убедительная просьба с жалобами обращаться напрямую к пользователю. Файлы для обмена на трекере предоставлены пользователями сайта, и администрация не несёт ответственности за их содержание. Просьба не заливать файлы, защищенные авторскими правами, а также файлы нелегального содержания!


    _________________
    [Профиль] [ЛС]
    Показать сообщения:    
    Ответить на тему

    Текущее время: Сегодня, в 04:23

    Часовой пояс: GMT + 2



    Вы не можете начинать темы
    Вы не можете отвечать на сообщения
    Вы не можете редактировать свои сообщения
    Вы не можете удалять свои сообщения
    Вы не можете голосовать в опросах
    Вы не можете прикреплять файлы к сообщениям
    Вы не можете скачивать файлы