BitTorrentTracker PerecTracker.org
BitTorrentTracker PerecTracker.org
    
Регистрация  ·  Вход
 
 · 
Забыли пароль?

  • Активная зона (Леонид Пчёлкин) [1979 г., производственная драма, SATRip]

    Ответить на тему
     
    Автор Сообщение

    Light

    Создавать темы 26-Мар-2015 13:18

           

    [Цитировать]

    Активная зона (2 серии)Год выпуска: 1979.
    Жанр: производственная драма.
    Продолжительность: 01:06:30 + 01:09:17 (02:15:47).
    Режиссер: Леонид Пчёлкин.
    В ролях:
    Олег Ефремов, Игорь Горбачёв, Ростислав Плятт, Татьяна Лаврова, Алла Покровская, Вячеслав Невинный, Иван Соловьёв, Андрей Мягков, Владимир Тюкин, Валерий Шальных.
    Описание:
    В основе сюжета борьба нового секретаря парткома атомной электростанции против достижения высоких показателей за счет нарушения норм эксплуатации техники и за улучшение морального климата в коллективе...
    Доп. информация:
    Страна: СССР .
    Киностудия: Творческое объединение "Экран".
    Премьера: 13 июня 1983 года.
    Автор сценария: Аркадий Ставицкий.
    Операторы: Борис Дунаев, Алексей Темерин.
    Композитор: Исаак Шварц.
    Художник: Виктор Монетов.

    Еще постер

    Релиз
    Рип с этой раздачи.
    Большое спасибо Cheef mate за предоставленый материал для рипа!!!

    Качество: SATRip
    Формат: AVI
    Видео: 640x480 (1.33:1), 25 fps, XviD build 73 ~1376 kbps avg, 0.18 bit/pixel
    Аудио: 48 kHz, MPEG Layer 3, 2 ch, ~128.00 kbps avg

    Отчет MI

    1-я серия
    General
    Complete name : Aktivnaya.zona.(2.serii.iz.2).1979.XviD.SATRip.fenixclub_1.43\Aktivnaya.zona.(1-ya.seriya.iz.2).1979.XviD.SATRip.fenixclub_1.43.avi
    Format : AVI
    Format/Info : Audio Video Interleave
    File size : 720 MiB
    Duration : 1h 6mn
    Overall bit rate : 1 515 Kbps
    Writing application : VirtualDubMod 1.5.10.3 | www.virtualdub-fr.org || (build 2550/release)
    Writing library : VirtualDubMod build 2550/release
    Video
    ID : 0
    Format : MPEG-4 Visual
    Format profile : Advanced Simple@L5
    Format settings, BVOP : 1
    Format settings, QPel : No
    Format settings, GMC : No warppoints
    Format settings, Matrix : Custom
    Codec ID : XVID
    Codec ID/Hint : XviD
    Duration : 1h 6mn
    Bit rate : 1 377 Kbps
    Width : 640 pixels
    Height : 480 pixels
    Display aspect ratio : 4:3
    Frame rate : 25.000 fps
    Color space : YUV
    Chroma subsampling : 4:2:0
    Bit depth : 8 bits
    Scan type : Progressive
    Compression mode : Lossy
    Bits/(Pixel*Frame) : 0.179
    Stream size : 655 MiB (91%)
    Writing library : XviD 73
    Audio
    ID : 1
    Format : MPEG Audio
    Format version : Version 1
    Format profile : Layer 3
    Codec ID : 55
    Codec ID/Hint : MP3
    Duration : 1h 6mn
    Bit rate mode : Constant
    Bit rate : 128 Kbps
    Channel(s) : 2 channels
    Sampling rate : 48.0 KHz
    Compression mode : Lossy
    Stream size : 60.9 MiB (8%)
    Alignment : Aligned on interleaves
    Interleave, duration : 40 ms (1.00 video frame)
    Interleave, preload duratio : 504 ms
    Writing library : LAME3.99r
    Encoding settings : -m s -V 4 -q 2 -lowpass 17 -b 128
    2-я серия
    General
    Complete name : Aktivnaya.zona.(2.serii.iz.2).1979.XviD.SATRip.fenixclub_1.43\Aktivnaya.zona.(2-ya.seriya.iz.2).1979.XviD.SATRip.fenixclub_1.43.avi
    Format : AVI
    Format/Info : Audio Video Interleave
    File size : 751 MiB
    Duration : 1h 9mn
    Overall bit rate : 1 515 Kbps
    Writing application : VirtualDubMod 1.5.10.3 | www.virtualdub-fr.org || (build 2550/release)
    Writing library : VirtualDubMod build 2550/release
    Video
    ID : 0
    Format : MPEG-4 Visual
    Format profile : Advanced Simple@L5
    Format settings, BVOP : 1
    Format settings, QPel : No
    Format settings, GMC : No warppoints
    Format settings, Matrix : Custom
    Codec ID : XVID
    Codec ID/Hint : XviD
    Duration : 1h 9mn
    Bit rate : 1 377 Kbps
    Width : 640 pixels
    Height : 480 pixels
    Display aspect ratio : 4:3
    Frame rate : 25.000 fps
    Color space : YUV
    Chroma subsampling : 4:2:0
    Bit depth : 8 bits
    Scan type : Progressive
    Compression mode : Lossy
    Bits/(Pixel*Frame) : 0.179
    Stream size : 682 MiB (91%)
    Writing library : XviD 73
    Audio
    ID : 1
    Format : MPEG Audio
    Format version : Version 1
    Format profile : Layer 3
    Codec ID : 55
    Codec ID/Hint : MP3
    Duration : 1h 9mn
    Bit rate mode : Constant
    Bit rate : 128 Kbps
    Channel(s) : 2 channels
    Sampling rate : 48.0 KHz
    Compression mode : Lossy
    Stream size : 63.4 MiB (8%)
    Alignment : Aligned on interleaves
    Interleave, duration : 40 ms (1.00 video frame)
    Interleave, preload duratio : 504 ms
    Writing library : LAME3.99r
    Encoding settings : -m s -V 4 -q 2 -lowpass 17 -b 128
    Скриншоты

    Альтернативный хост

    Скачать .torrent

    Скачать торрент-файл бесплатно и на максимальной скорости!

    Как скачивать? · Что такое торрент? · Рейтинг и ограничения

    !ВНИМАНИЕ!
    Сайт не распространяет и не хранит электронные версии произведений, а занимается лишь лишь предоставлением доступа к создаваемому пользователями каталогу ссылок на торрент-файлы, которые содержат только списки хеш-сумм, убедительная просьба с жалобами обращаться напрямую к пользователю. Файлы для обмена на трекере предоставлены пользователями сайта, и администрация не несёт ответственности за их содержание. Просьба не заливать файлы, защищенные авторскими правами, а также файлы нелегального содержания!


    _________________
    [Профиль] [ЛС]
    Показать сообщения:    
    Ответить на тему

    Текущее время: Сегодня, в 15:44

    Часовой пояс: GMT + 2



    Вы не можете начинать темы
    Вы не можете отвечать на сообщения
    Вы не можете редактировать свои сообщения
    Вы не можете удалять свои сообщения
    Вы не можете голосовать в опросах
    Вы не можете прикреплять файлы к сообщениям
    Вы не можете скачивать файлы