Register  ·  Log in
Forgot password?

  • Блэквуд / Blackwood (Адам Уимпенни / Adam Wimpenny) [2014, Великобритания, триллер, DVDRip] DVO (2D)

    Reply to topic
    Author Message


    Post 26-Mar-2015 05:54



    Блэквуд / Blackwood
    Страна: Великобритания
    Жанр: триллер
    Год выпуска: 2014
    Продолжительность: 01:29:52
    Перевод: Любительский (двухголосый закадровый) 2D
    Cубтитры: нет
    Оригинальная аудиодорожка: нет
    Режиссер: Адам Уимпенни / Adam Wimpenny
    В ролях: Эд Стоппард, София Майлс, Рассел Тови, Исаак Эндрюс, Пол Кэй, Грег Уайз, Джоэнна Вандерхам, Кеннет Коллар, Анна Андресен, Гарри Бертон
    Описание: Классическая английская история о привидениях получает новое прочтение, когда профессор колледжа обнаруживает, что атакован видениями призрака.
    Доп. информация:
    Перевод: Antonio
    Качество видео: DVDRip
    Формат видео: AVI
    Видео: Xvid 704x304 24.00fps 2014Kbps
    Аудио: Dolby AC3 48000Hz stereo 192 Kbps


    Complete name : D:\TORRENTS\Блэквуд.avi
    Format : AVI
    Format/Info : Audio Video Interleave
    File size : 1.39 GiB
    Duration : 1h 29mn
    Overall bit rate : 2 215 Kbps
    ID : 0
    Format : MPEG-4 Visual
    Format profile : Advanced Simple@L5
    Format settings, BVOP : 2
    Format settings, QPel : No
    Format settings, GMC : No warppoints
    Format settings, Matrix : Default (H.263)
    Codec ID : XVID
    Codec ID/Hint : XviD
    Duration : 1h 29mn
    Bit rate : 2 014 Kbps
    Width : 704 pixels
    Height : 304 pixels
    Display aspect ratio : 2.35:1
    Frame rate : 24.000 fps
    Color space : YUV
    Chroma subsampling : 4:2:0
    Bit depth : 8 bits
    Scan type : Progressive
    Compression mode : Lossy
    Bits/(Pixel*Frame) : 0.392
    Stream size : 1.26 GiB (91%)
    Writing library : XviD 64
    ID : 1
    Format : AC-3
    Format/Info : Audio Coding 3
    Mode extension : CM (complete main)
    Format settings, Endianness : Big
    Codec ID : 2000
    Duration : 1h 29mn
    Source duration : 1h 29mn
    Bit rate mode : Constant
    Bit rate : 192 Kbps
    Channel(s) : 2 channels
    Channel positions : Front: L R
    Sampling rate : 48.0 KHz
    Bit depth : 16 bits
    Compression mode : Lossy
    Stream size : 123 MiB (9%)
    Alignment : Aligned on interleaves
    Interleave, duration : 42 ms (1.00 video frame)

    Скриншот c названием фильма


    Download .torrent

    Download free and at maximum speed!

    How to Download? · What is a torrent? · Ratings and Limitations

    The site does not extend and does not store electronic(digital) versions of products, and only gives access to a reference catalogue created by users on torrent-files which contain only lists of the hash-sums, the earnest entreaty, with complaints(abuse) to access directly to the user. Files for an exchange on tracker are given by users of a site, and the administration does not bear the responsibility for their maintenance. The request to not fill in the files protected by copyrights, and also files of the illegal maintenance!

    [Profile] [PM]
    Display posts from previous:    
    Reply to topic

    The time now is: Today 06:15

    All times are GMT + 3 Hours

    You cannot post new topics in this forum
    You cannot reply to topics in this forum
    You cannot edit your posts in this forum
    You cannot delete your posts in this forum
    You cannot vote in polls in this forum
    You cannot attach files in this forum
    You cannot download files in this forum