BitTorrentTracker PerecTracker.org
BitTorrentTracker PerecTracker.org
    
Регистрация  ·  Вход
 
 · 
Забыли пароль?

  • Блэквуд / Blackwood (Адам Уимпенни / Adam Wimpenny) [2014, Великобритания, триллер, DVDRip] DVO (2D)

    Ответить на тему
     
    Автор Сообщение

    Light

    Создавать темы 26-Мар-2015 04:54

           

    [Цитировать]

    Блэквуд / Blackwood
    Страна: Великобритания
    Жанр: триллер
    Год выпуска: 2014
    Продолжительность: 01:29:52
    Перевод: Любительский (двухголосый закадровый) 2D
    Cубтитры: нет
    Оригинальная аудиодорожка: нет
    Режиссер: Адам Уимпенни / Adam Wimpenny
    В ролях: Эд Стоппард, София Майлс, Рассел Тови, Исаак Эндрюс, Пол Кэй, Грег Уайз, Джоэнна Вандерхам, Кеннет Коллар, Анна Андресен, Гарри Бертон
    Описание: Классическая английская история о привидениях получает новое прочтение, когда профессор колледжа обнаруживает, что атакован видениями призрака.
    Доп. информация:
    Перевод: Antonio
    Сэмпл: http://multi-up.com
    Качество видео: DVDRip
    Формат видео: AVI
    Видео: Xvid 704x304 24.00fps 2014Kbps
    Аудио: Dolby AC3 48000Hz stereo 192 Kbps

    MediaInfo

    General
    Complete name : D:\TORRENTS\Блэквуд.avi
    Format : AVI
    Format/Info : Audio Video Interleave
    File size : 1.39 GiB
    Duration : 1h 29mn
    Overall bit rate : 2 215 Kbps
    Video
    ID : 0
    Format : MPEG-4 Visual
    Format profile : Advanced Simple@L5
    Format settings, BVOP : 2
    Format settings, QPel : No
    Format settings, GMC : No warppoints
    Format settings, Matrix : Default (H.263)
    Codec ID : XVID
    Codec ID/Hint : XviD
    Duration : 1h 29mn
    Bit rate : 2 014 Kbps
    Width : 704 pixels
    Height : 304 pixels
    Display aspect ratio : 2.35:1
    Frame rate : 24.000 fps
    Color space : YUV
    Chroma subsampling : 4:2:0
    Bit depth : 8 bits
    Scan type : Progressive
    Compression mode : Lossy
    Bits/(Pixel*Frame) : 0.392
    Stream size : 1.26 GiB (91%)
    Writing library : XviD 64
    Audio
    ID : 1
    Format : AC-3
    Format/Info : Audio Coding 3
    Mode extension : CM (complete main)
    Format settings, Endianness : Big
    Codec ID : 2000
    Duration : 1h 29mn
    Source duration : 1h 29mn
    Bit rate mode : Constant
    Bit rate : 192 Kbps
    Channel(s) : 2 channels
    Channel positions : Front: L R
    Sampling rate : 48.0 KHz
    Bit depth : 16 bits
    Compression mode : Lossy
    Stream size : 123 MiB (9%)
    Alignment : Aligned on interleaves
    Interleave, duration : 42 ms (1.00 video frame)

    Скриншот c названием фильма

    Скриншоты

    Скачать .torrent

    Скачать торрент-файл бесплатно и на максимальной скорости!

    Как скачивать? · Что такое торрент? · Рейтинг и ограничения

    !ВНИМАНИЕ!
    Сайт не распространяет и не хранит электронные версии произведений, а занимается лишь лишь предоставлением доступа к создаваемому пользователями каталогу ссылок на торрент-файлы, которые содержат только списки хеш-сумм, убедительная просьба с жалобами обращаться напрямую к пользователю. Файлы для обмена на трекере предоставлены пользователями сайта, и администрация не несёт ответственности за их содержание. Просьба не заливать файлы, защищенные авторскими правами, а также файлы нелегального содержания!


    _________________
    [Профиль] [ЛС]
    Показать сообщения:    
    Ответить на тему

    Текущее время: Сегодня, в 18:35

    Часовой пояс: GMT + 2



    Вы не можете начинать темы
    Вы не можете отвечать на сообщения
    Вы не можете редактировать свои сообщения
    Вы не можете удалять свои сообщения
    Вы не можете голосовать в опросах
    Вы не можете прикреплять файлы к сообщениям
    Вы не можете скачивать файлы