BitTorrentTracker PerecTracker.org
BitTorrentTracker PerecTracker.org
    
Регистрация  ·  Вход
 
 · 
Забыли пароль?

  • Гектор и поиски счастья / Путешествие Гектора в поисках счастья / Hector and the Search for Happiness (Питер Челсом / Peter Chelsom) [2014 г., Великобритания, Германия, Канада, ЮАР, Драма, Комедия, BDRip] AVO (Карповский)

    Ответить на тему
     
    Автор Сообщение

    Light

    Создавать темы 26-Мар-2015 04:54

           

    [Цитировать]

    Гектор и поиски счастья / Путешествие Гектора в поисках счастья / Hector and the Search for Happiness
    Год выпуска: 2014
    Страна: Великобритания, Германия, Канада, ЮАР
    Жанр: Драма, Комедия
    Продолжительность: 1:59:35
    Перевод: Авторский (одноголосый закадровый), Антон Карповский
    Cубтитры: нет
    Режиссер: Питер Челсом / Peter Chelsom
    В ролях: Саймон Пегг /Simon Pegg/, Тони Коллетт /Toni Collette/, Розамунд Пайк /Rosamund Pike/, Стеллан Скарсгард /Stellan Skarsgård/, Жан Рено /Jean Reno/, Кристофер Пламмер /Christopher Plummer/
    Описание: Гектор - немного эксцентричный, но ужасно обаятельный лондонский психиатр — пребывает в состоянии кризиса, вызванного тем, что его пациенты не становятся счастливее, несмотря на все его усилия. И однажды Гектор решается самолично отправиться в путешествие по всему свету, чтобы узнать, существует ли счастье вообще и, что еще важнее, существует ли оно для него самого.
    Исходник видео:
    Качество видео: BDRip
    Формат: AVI
    Видео кодек: XviD
    Аудио кодек: AC3
    Видео: 720x304, 23,976 fps, 2223 kbps
    Аудио: 48000Hz, DD 5.1, 384 kbps
    Скачать: SAMPLE 19.30MB
    Доп. информация: За перевод, данного фильма у Антона Карповского, выражается благодарность пользователям форума hdtracker и e180: ultrajeka, zeleniydzhan, KpucTo161, Role, Видео, shtift, Guyver, luka69, Nadoelo, kabukiman, DIEnis82, xerman13, Splinter.
    P.S.: Всех кто располагает переводами Антона Карповского попрошу в эту тему.

    MediaInfo

    Формат : AVI
    Формат/Информация : Audio Video Interleave
    Профиль формата : OpenDML
    Размер файла : 2,19 Гбайт
    Продолжительность : 1 ч. 59 м.
    Общий поток : 2619 Кбит/сек
    Программа кодирования : VirtualDubMod 1.5.4.1 (build 2178/release)
    Библиотека кодирования : VirtualDubMod build 2178/release
    Видео
    Идентификатор : 0
    Формат : MPEG-4 Visual
    Профиль формата : Advanced Simple@L5
    Параметр BVOP формата : 1
    Параметр QPel формата : Нет
    Параметр GMC формата : Без точки перехода
    Параметр матрицы формата : Default (MPEG)
    Идентификатор кодека : XVID
    Идентификатор кодека/Подсказка : XviD
    Продолжительность : 1 ч. 59 м.
    Битрейт : 2223 Кбит/сек
    Ширина : 720 пикселей
    Высота : 304 пикселя
    Соотношение сторон : 2,35:1
    Частота кадров : 23,976 кадра/сек
    Цветовое пространство : YUV
    Субдискретизация насыщенности : 4:2:0
    Битовая глубина : 8 бит
    Тип развёртки : Прогрессивная
    Метод сжатия : С потерями
    Бит/(Пиксели*Кадры) : 0.424
    Размер потока : 1,86 Гбайт (85%)
    Библиотека кодирования : XviD 1.2.1 (UTC 2008-12-04)
    Аудио
    Идентификатор : 1
    Формат : AC-3
    Формат/Информация : Audio Coding 3
    Расширение режима : CM (complete main)
    Параметр Endianness формата : Big
    Идентификатор кодека : 2000
    Продолжительность : 1 ч. 59 м.
    Вид битрейта : Постоянный
    Битрейт : 384 Кбит/сек
    Каналы : 6 каналов
    Расположение каналов : Front: L C R, Side: L R, LFE
    Частота : 48,0 КГц
    Битовая глубина : 16 бит
    Метод сжатия : С потерями
    Размер потока : 328 Мбайт (15%)
    Выравнивание : Разделение по промежуткам
    Продолжительность промежутка : 42 мс. (1,00 видеокадр)
    Время предзагрузки промежутка : 500 мс.

    Скриншоты

    Скачать .torrent

    Скачать торрент-файл бесплатно и на максимальной скорости!

    Как скачивать? · Что такое торрент? · Рейтинг и ограничения

    !ВНИМАНИЕ!
    Сайт не распространяет и не хранит электронные версии произведений, а занимается лишь лишь предоставлением доступа к создаваемому пользователями каталогу ссылок на торрент-файлы, которые содержат только списки хеш-сумм, убедительная просьба с жалобами обращаться напрямую к пользователю. Файлы для обмена на трекере предоставлены пользователями сайта, и администрация не несёт ответственности за их содержание. Просьба не заливать файлы, защищенные авторскими правами, а также файлы нелегального содержания!


    _________________
    [Профиль] [ЛС]
    Показать сообщения:    
    Ответить на тему

    Текущее время: Сегодня, в 10:40

    Часовой пояс: GMT + 2



    Вы не можете начинать темы
    Вы не можете отвечать на сообщения
    Вы не можете редактировать свои сообщения
    Вы не можете удалять свои сообщения
    Вы не можете голосовать в опросах
    Вы не можете прикреплять файлы к сообщениям
    Вы не можете скачивать файлы