BitTorrentTracker PerecTracker.org
BitTorrentTracker PerecTracker.org
    
Регистрация  ·  Вход
 
 · 
Забыли пароль?

  • Проклятое место / Lost Place (Торстен Клайн / Thorsten Klein) [2013, Германия, ужасы, триллер, детектив, HDTV 1080i] MVO

    Ответить на тему
     
    Автор Сообщение

    Flirldrerve

    Создавать темы 26-Мар-2015 00:42

           

    [Цитировать]

    Проклятое место / Lost PlaceСтрана: Германия
    Жанр: ужасы, триллер, детектив
    Год выпуска: 2013
    Продолжительность: 01:37:01
    Перевод: Профессиональный (многоголосый закадровый)
    Cубтитры: нет
    Режиссер: Торстен Клайн / Thorsten Klein
    В ролях: Франсуа Геск, Ютта-Мерле Бёрнсен, Йозефина Пройсс, Пит Буковски, Анатоль Таубман, Бьорн Бугри, Георг Каммерер, Рике Экерман
    Описание: Четверо подростков отправляются на заброшенную военную базу, где некогда проводились эксперименты с климатическим оружием. Они считают происходящее занятным приключением, но с ними начинают происходить странные и страшные вещи…
    Сэмпл: http://rusfolder.com/43293955

    Тип релиза: HDTV 1080i
    Контейнер: TS
    Видео: AVC/H.264, 1920x1080 (16:9), 6232 Кбит/сек, 25.000 fps
    Аудио: русский, MP2, 2ch, 48,0 КГц, 192 Кбит/сек

    MediaInfo

    Общее
    Идентификатор : 1 (0x1)
    Полное имя : F:\раздачи\Проклятое место.ts
    Формат : MPEG-TS
    Размер файла : 4,58 Гбайт
    Продолжительность : 1 ч. 37 м.
    Режим общего битрейта : Переменный
    Общий поток : 6760 Кбит/сек
    Максимальный общий битрейт : 35,5 Мбит/сек
    Видео
    Идентификатор : 4113 (0x1011)
    Идентификатор меню : 1 (0x1)
    Формат : AVC
    Формат/Информация : Advanced Video Codec
    Профиль формата : Main@L4.0
    Параметр CABAC формата : Да
    Параметр ReFrames формата : 3 кадра
    Идентификатор кодека : 27
    Продолжительность : 1 ч. 37 м.
    Вид битрейта : Переменный
    Битрейт : 6232 Кбит/сек
    Максимальный битрейт : 40,0 Мбит/сек
    Ширина : 1920 пикселей
    Высота : 1080 пикселей
    Соотношение сторон : 16:9
    Частота кадров : 25,000 кадров/сек
    Стандарт вещания : Component
    Цветовое пространство : YUV
    Субдискретизация насыщенности : 4:2:0
    Битовая глубина : 8 бит
    Тип развёртки : Чересстрочная
    Порядок развёртки : Верхнее поле первое
    Бит/(Пиксели*Кадры) : 0.120
    Размер потока : 4,22 Гбайт (92%)
    colour_range : Limited
    Аудио
    Идентификатор : 4352 (0x1100)
    Идентификатор меню : 1 (0x1)
    Формат : MPEG Audio
    Версия формата : Version 1
    Профиль формата : Layer 2
    Идентификатор кодека : 4
    Продолжительность : 1 ч. 37 м.
    Вид битрейта : Постоянный
    Битрейт : 192 Кбит/сек
    Каналы : 2 канала
    Частота : 48,0 КГц
    Метод сжатия : С потерями
    Размер потока : 133 Мбайт (3%)
    Язык : Russian

    Скриншоты с названием фильма

    Скриншоты

    Скачать .torrent

    Скачать торрент-файл бесплатно и на максимальной скорости!

    Как скачивать? · Что такое торрент? · Рейтинг и ограничения

    !ВНИМАНИЕ!
    Сайт не распространяет и не хранит электронные версии произведений, а занимается лишь лишь предоставлением доступа к создаваемому пользователями каталогу ссылок на торрент-файлы, которые содержат только списки хеш-сумм, убедительная просьба с жалобами обращаться напрямую к пользователю. Файлы для обмена на трекере предоставлены пользователями сайта, и администрация не несёт ответственности за их содержание. Просьба не заливать файлы, защищенные авторскими правами, а также файлы нелегального содержания!


    _________________
    [Профиль] [ЛС]
    Показать сообщения:    
    Ответить на тему

    Текущее время: Сегодня, в 11:36

    Часовой пояс: GMT + 2



    Вы не можете начинать темы
    Вы не можете отвечать на сообщения
    Вы не можете редактировать свои сообщения
    Вы не можете удалять свои сообщения
    Вы не можете голосовать в опросах
    Вы не можете прикреплять файлы к сообщениям
    Вы не можете скачивать файлы