BitTorrentTracker PerecTracker.org
BitTorrentTracker PerecTracker.org
    
Регистрация  ·  Вход
 
 · 
Забыли пароль?

  • Голодные игры: Сойка-пересмешница. Часть I / The Hunger Games: Mockingjay - Part 1 (Френсис Лоуренс / Francis Lawrence) [2014, США, Фантастика, приключения, BDRip-AVC] Dub + Sub Rus, Eng + Original Eng

    Ответить на тему
     
    Автор Сообщение

    Light

    Создавать темы 25-Мар-2015 07:54

           

    [Цитировать]

    Голодные игры: Сойка-пересмешница. Часть IThe Hunger Games: Mockingjay - Part 1«Храбрость одного изменит мир»
    Страна: США
    Жанр: Фантастика, приключения
    Год выпуска: 2014
    Продолжительность: 02:03:21
    Перевод: Профессиональный (дублированный) [i Tunes]
    Cубтитры: русские,английские
    Оригинальная аудиодорожка: английский
    Режиссер: Френсис Лоуренс / Francis Lawrence
    В ролях: Дженнифер Лоуренс, Лиам Хемсворт, Джош Хатчерсон, Джулианна Мур, Филип Сеймур Хоффман, Дональд Сазерленд, Вуди Харрельсон, Элизабет Бэнкс, Натали Дормер, Сэм Клафлин
    Описание: 75-ые Голодные игры изменили все. Китнисс нарушила правила, и непоколебимое до той поры деспотичное правление Капитолия пошатнулось. У людей появилась надежда, и ее символ – Сойка-пересмешница. Теперь, чтобы освободить захваченного в плен Пита и защитить своих близких, Китнисс придется сражаться в настоящих битвах и стать еще сильнее, чем на арене игр.
    Доп. информация:
    Релиз группы:
    Качество видео: BDRip-AVC BDRip-AVC |Голодные игры: Сойка-пересмешница. Часть I / The Hunger Games: Mockingjay - Part 1 (2014) 1080p BD-Remux| HD club
    Формат видео: MKV
    Видео: 1152x480 (2.40:1), 23.976 fps, 2243 Кbps, 0.169 bit/pixe
    Аудио: 48 kHz, AC3 Dolby Digital, 3/2 (L,C,R,l,r) + LFE ch, 384.00 kbps | DUB
    Аудио 2: 48 kHz, AC3 Dolby Digital, 3/2 (L,C,R,l,r) + LFE ch, 448.00 kbps | ENG
    Формат субтитров: softsub (SRT)
    Доп. информация о субтитрах: отключаемые

    MediaInfo

    General
    Unique ID : 194450789910529788638313856047975090308 (0x9249DC22656C1FC0823C676BBAE1C884)
    Complete name : E:\Мои рипы\Голодные игры Сойка-пересмешница. Часть I\The Hunger Games Mockingjay Part 1.mkv
    Format : Matroska
    Format version : Version 2
    File size : 2.71 GiB
    Duration : 2h 3mn
    Overall bit rate : 3 137 Kbps
    Encoded date : UTC 2015-03-24 23:39:01
    Writing application : mkvmerge v7.0.0 ('Where We Going') 64bit built on Jun 9 2014 15:16:27
    Writing library : libebml v1.3.0 + libmatroska v1.4.1
    DURATION : 01:49:47.448000000
    NUMBER_OF_FRAMES : 1264
    NUMBER_OF_BYTES : 43878
    _STATISTICS_WRITING_APP : mkvmerge v7.0.0 ('Where We Going') 64bit built on Jun 9 2014 15:16:27
    _STATISTICS_WRITING_DATE_UTC : 2015-03-24 23:39:01
    _STATISTICS_TAGS : BPS DURATION NUMBER_OF_FRAMES NUMBER_OF_BYTES
    Attachment : Yes
    Video
    ID : 1
    Format : AVC
    Format/Info : Advanced Video Codec
    Format profile : High@L4.1
    Format settings, CABAC : Yes
    Format settings, ReFrames : 14 frames
    Codec ID : V_MPEG4/ISO/AVC
    Duration : 2h 3mn
    Bit rate : 2 243 Kbps
    Width : 1 152 pixels
    Height : 480 pixels
    Display aspect ratio : 2.40:1
    Frame rate mode : Constant
    Frame rate : 23.976 fps
    Color space : YUV
    Chroma subsampling : 4:2:0
    Bit depth : 8 bits
    Scan type : Progressive
    Bits/(Pixel*Frame) : 0.169
    Stream size : 1.94 GiB (71%)
    Title : The Hunger Games Mockingjay Part 1
    Writing library : x264 core 146 r2538kMod 121396c
    Encoding settings : cabac=1 / ref=14 / deblock=1:-3:-3 / analyse=0x3:0x113 / me=umh / subme=11 / psy=1 / fade_compensate=0.00 / psy_rd=1.00:0.15 / mixed_ref=1 / me_range=48 / chroma_me=1 / trellis=2 / 8x8dct=1 / cqm=0 / deadzone=21,11 / fast_pskip=0 / chroma_qp_offset=0 / threads=6 / lookahead_threads=6 / sliced_threads=0 / slices=10 / nr=0 / decimate=1 / interlaced=0 / bluray_compat=0 / constrained_intra=0 / fgo=0 / bframes=16 / b_pyramid=2 / b_adapt=2 / b_bias=0 / direct=3 / weightb=1 / open_gop=1 / weightp=2 / keyint=240 / keyint_min=23 / scenecut=40 / intra_refresh=0 / rc_lookahead=40 / rc=crf / mbtree=0 / crf=17.1000 / qcomp=0.60 / qpmin=0 / qpmax=69 / qpstep=4 / vbv_maxrate=50000 / vbv_bufsize=62500 / crf_max=0.0 / nal_hrd=none / filler=0 / ip_ratio=1.40 / pb_ratio=1.30 / aq=1:1.00
    Default : Yes
    Forced : No
    Color primaries : BT.709
    Transfer characteristics : BT.709
    Matrix coefficients : BT.709
    Audio #1
    ID : 2
    Format : AC-3
    Format/Info : Audio Coding 3
    Mode extension : CM (complete main)
    Format settings, Endianness : Big
    Codec ID : A_AC3
    Duration : 2h 3mn
    Bit rate mode : Constant
    Bit rate : 384 Kbps
    Channel(s) : 6 channels
    Channel positions : Front: L C R, Side: L R, LFE
    Sampling rate : 48.0 KHz
    Bit depth : 16 bits
    Compression mode : Lossy
    Stream size : 340 MiB (12%)
    Title : Dub
    Language : Russian
    Default : Yes
    Forced : No
    Audio #2
    ID : 3
    Format : AC-3
    Format/Info : Audio Coding 3
    Mode extension : CM (complete main)
    Format settings, Endianness : Big
    Codec ID : A_AC3
    Duration : 2h 3mn
    Bit rate mode : Constant
    Bit rate : 448 Kbps
    Channel(s) : 6 channels
    Channel positions : Front: L C R, Side: L R, LFE
    Sampling rate : 48.0 KHz
    Bit depth : 16 bits
    Compression mode : Lossy
    Stream size : 397 MiB (14%)
    Title : Eng
    Language : English
    Default : No
    Forced : No
    Text #1
    ID : 4
    Format : UTF-8
    Codec ID : S_TEXT/UTF8
    Codec ID/Info : UTF-8 Plain Text
    Title : Rus.forsed
    Language : Russian
    Default : Yes
    Forced : No
    Text #2
    ID : 5
    Format : UTF-8
    Codec ID : S_TEXT/UTF8
    Codec ID/Info : UTF-8 Plain Text
    Title : Rus
    Language : Russian
    Default : No
    Forced : No
    Text #3
    ID : 6
    Format : UTF-8
    Codec ID : S_TEXT/UTF8
    Codec ID/Info : UTF-8 Plain Text
    Title : Eng
    Language : English
    Default : No
    Forced : No
    Menu
    00:00:00.000 : en:Chapter 1
    00:07:33.411 : en:Chapter 2
    00:12:00.302 : en:Chapter 3
    00:12:59.445 : en:Chapter 4
    00:15:55.370 : en:Chapter 5
    00:20:56.922 : en:Chapter 6
    00:23:15.434 : en:Chapter 7
    00:25:52.675 : en:Chapter 8
    00:29:59.255 : en:Chapter 9
    00:38:14.041 : en:Chapter 10
    00:46:43.842 : en:Chapter 11
    00:49:46.315 : en:Chapter 12
    00:53:19.528 : en:Chapter 13
    00:55:10.222 : en:Chapter 14
    00:58:07.858 : en:Chapter 15
    01:08:42.326 : en:Chapter 16
    01:12:22.337 : en:Chapter 17
    01:15:45.707 : en:Chapter 18
    01:19:10.162 : en:Chapter 19
    01:22:46.836 : en:Chapter 20
    01:25:09.686 : en:Chapter 21
    01:28:07.738 : en:Chapter 22
    01:31:15.552 : en:Chapter 23
    01:36:02.756 : en:Chapter 24
    01:37:35.890 : en:Chapter 25
    01:40:35.404 : en:Chapter 26
    01:45:16.518 : en:Chapter 27
    01:48:44.475 : en:Chapter 28
    01:50:31.750 : en:Chapter 29
    01:52:36.541 : en:Chapter 30
    01:53:08.448 : en:Chapter 31

    x264 log

    VIDEO ENCODING
    x264 [info]: frame I:1174 Avg QP:15.41 size: 67402
    x264 [info]: frame P:36278 Avg QP:16.20 size: 25948
    x264 [info]: frame B:140754 Avg QP:18.04 size: 7962
    x264 [info]: consecutive B-frames: 2.0% 2.5% 13.0% 9.0% 10.7% 40.8% 5.2% 1.3% 3.5% 1.4% 2.1% 3.5% 1.5% 0.9% 0.7% 0.3% 1.5%
    x264 [info]: kb/s:2304.59
    x264 [total]: encoded 178206 frames, 4.60 fps, 2304.59 kb/s, duration 10:45:38.90

    Скриншот c названием фильма

    Скриншоты

    Скачать .torrent

    Скачать торрент-файл бесплатно и на максимальной скорости!

    Как скачивать? · Что такое торрент? · Рейтинг и ограничения

    !ВНИМАНИЕ!
    Сайт не распространяет и не хранит электронные версии произведений, а занимается лишь лишь предоставлением доступа к создаваемому пользователями каталогу ссылок на торрент-файлы, которые содержат только списки хеш-сумм, убедительная просьба с жалобами обращаться напрямую к пользователю. Файлы для обмена на трекере предоставлены пользователями сайта, и администрация не несёт ответственности за их содержание. Просьба не заливать файлы, защищенные авторскими правами, а также файлы нелегального содержания!


    _________________
    [Профиль] [ЛС]
    Показать сообщения:    
    Ответить на тему

    Текущее время: Сегодня, в 02:04

    Часовой пояс: GMT + 2



    Вы не можете начинать темы
    Вы не можете отвечать на сообщения
    Вы не можете редактировать свои сообщения
    Вы не можете удалять свои сообщения
    Вы не можете голосовать в опросах
    Вы не можете прикреплять файлы к сообщениям
    Вы не можете скачивать файлы