BitTorrentTracker PerecTracker.org
BitTorrentTracker PerecTracker.org
    
Регистрация  ·  Вход
 
 · 
Забыли пароль?

  • Мумия 1, 2, 3 / The Mummy 1, 2, 3 (Стивен Соммерс / Stevan Sommers, Роб Коэн / Rob Cohen) [1999, 2001, 2008 гг., ужасы, боевик, фэнтези, комедия, приключения, HDRip]

    Ответить на тему
     
    Автор Сообщение

    -sasha2006

    Создавать темы 06-Апр-2011 22:09

           

    [Цитировать]

    Мумия / Mummy-Страна: США
    Жанр: Приключения, комедия, фэнтези
    Год выпуска: 2001
    Продолжительность: 02:04:53
    Перевод: Профессиональный (многоголосый, закадровый)
    Cубтитры: Нет
    Режиссер: Стивен Соммерс / Stephen Sommers
    премьера (мир)............................16 апреля 1999
    релиз на Blu-Ray......................9 декабря 2008, «Юниверсал Пикчерс Рус»
    В ролях: Брендан Фрэйзер /Brendan Fraser/, Рэйчел Уайз /Rachel Weisz/, Джон Ханна /John Hannah/, Арнолд Вослу /Arnold Vosloo/, Кевин Джей О'Коннор /Kevin J. O'Connor/, Джонатан Хайд /Jonathan Hyde/
    Описание: На бескрайних просторах египетской пустыни компания сорвиголов разных национальностей рыщет в поисках несметных сокровищ фараона, над которыми тяготеет жуткое древнее проклятие.
    Рядом с кладом покоится мумия коварного жреца, жестоко казненного за ужасное убийство могущественного правителя Египта. Золотоискатели потревожили многовековой покой гробницы, и мумия встает из могилы, чтобы погрузить мир в царство кошмара…

    Качество видео: HDRip ///СОВМЕСТИМО С БЫТОВЫМИ ПЛЕЕРАМИ///
    Формат видео: AVI
    Видео кодек: XviD
    Аудио кодек: AC3
    Видео: 720x304 (2.37:1), 23.976 fps, XviD build 47 ~1346 kbps avg, 0.26 bit/pixel
    Аудио: 48 kHz, AC3 Dolby Digital, 3/2 (L,C,R,l,r) + LFE ch, ~320.00 kbps avg

    MediaInfo

    General
    Complete name : E:\Mymia.avi
    Format : AVI
    Format/Info : Audio Video Interleave
    File size : 1.46 GiB
    Duration : 2h 4mn
    Overall bit rate : 1 676 Kbps
    Writing application : VirtualDubMod 1.5.10.2 (build 2540/release)
    Writing library : VirtualDubMod build 2540/release
    Video
    ID : 0
    Format : MPEG-4 Visual
    Format profile : Advanced Simple@L5
    Format settings, BVOP : Yes
    Format settings, QPel : No
    Format settings, GMC : No warppoints
    Format settings, Matrix : Default (MPEG)
    Codec ID : XVID
    Codec ID/Hint : XviD
    Duration : 2h 4mn
    Bit rate : 1 347 Kbps
    Width : 720 pixels
    Height : 304 pixels
    Display aspect ratio : 2.35:1
    Frame rate : 23.976 fps
    Resolution : 8 bits
    Colorimetry : 4:2:0
    Scan type : Progressive
    Bits/(Pixel*Frame) : 0.257
    Stream size : 1.18 GiB (80%)
    Writing library : XviD 1.2.0.dev47 (UTC 2006-11-01)
    Audio
    ID : 1
    Format : AC-3
    Format/Info : Audio Coding 3
    Codec ID : 2000
    Duration : 2h 4mn
    Bit rate mode : Constant
    Bit rate : 320 Kbps
    Channel(s) : 6 channels
    Channel positions : Front: L C R, Surround: L R, LFE
    Sampling rate : 48.0 KHz
    Stream size : 286 MiB (19%)
    Alignment : Split accross interleaves
    Interleave, duration : 42 ms (1.00 video frame)
    Interleave, preload duration : 500 ms

    Скриншоты


    --Мумия возвращается / Mummy Returns, The-Страна: США
    Жанр: Приключения, комедия, фэнтези
    Год выпуска: 2001
    Продолжительность: 02:09:38
    Перевод: Профессиональный (дублированный)
    Cубтитры: Русские (неотключаемые (надписи, древнегреческий))
    Режиссер: Стивен Соммерс / Stephen Sommers
    премьера (мир)............................29 апреля 2001
    премьера (РФ).........................18 мая 2001, «Ист-Вест»
    релиз на Blu-Ray......................16 декабря 2008, «Юниверсал Пикчерс Рус»
    В ролях: Брендан Фрэйзер /Brendan Fraser/, Рэйчел Уайц /Rachel Weisz/, Джон Ханна /John Hannah/, Арнольд Вослу /Arnold Vosloo/, Одед Фер /Oded Fehr/, Патриция Веласкес /Patricia Velazquez/
    Описание: Прошло десять лет... Искатель приключений Рик О'Конелл теперь богат, счастливо женат на прекрасной Эвелин и воспитывает своего восьмилетнего сына Алекса. Но злой рок не дает очаровательной семье О'Конеллов насладиться спокойной жизнью. Зловещий жрец Имхотеп снова восстал из мертвых! Теперь у Рика, Эвелин и малютки Алекса есть всего семь дней, чтобы спасти мир, иначе жрец возглавит армию воинов бога смерти Анубиса и никто из живых не сможет противостоять им...
    Качество видео: HDRip ///СОВМЕСТИМО С БЫТОВЫМИ ПЛЕЕРАМИ///
    Формат видео: AVI
    Видео кодек: XviD
    Аудио кодек: AC3
    Видео: 720x304 (2.37:1), 23.976 fps, XviD build 50 ~1151 kbps avg, 0.22 bit/pixel
    Аудио: 48 kHz, AC3 Dolby Digital, 3/2 (L,C,R,l,r) + LFE ch, ~448.00 kbps avg

    MediaInfo

    Общее
    Полное имя : D:\Mymia vozvrajaetsya [rutracker.org] by sasha20061.avi
    Формат : AVI
    Формат/Информация : Audio Video Interleave
    Размер файла : 1,46 Гигабайт
    Продолжительность : 2 ч. 9 м.
    Общий поток : 1607 Кбит/сек
    Программа-кодировщик : VirtualDubMod 1.5.10.2 (build 2540/release)
    Библиотека кодирования : VirtualDubMod build 2540/release
    Видео
    Идентификатор : 0
    Формат : MPEG-4 Visual
    Профайл формата : AdvancedSimple@L5
    Параметры BVOP формата : Да
    Параметры QPel формата : Нет
    Параметры GMC формата : Без точки перехода
    Параметры матрицы формата : Default (MPEG)
    Идентификатор кодека : XVID
    Идентификатор кодека/Подсказка : XviD
    Продолжительность : 2 ч. 9 м.
    Битрейт : 1152 Кбит/сек
    Ширина : 720 пикс.
    Высота : 304 пикс.
    Соотношение кадра : 2,35:1
    Частота кадров : 23,976 кадр/сек
    Разрешение : 24 бит
    Колориметрия : 4:2:0
    Тип развёртки : Прогрессивная
    Бит/(Пиксели*Кадры) : 0.219
    Размер потока : 1,04 Гигабайт (72%)
    Библиотека кодирования : XviD 1.2.1 (UTC 2008-12-04)
    Аудио
    Идентификатор : 1
    Формат : AC-3
    Формат/Информация : Audio Coding 3
    Идентификатор кодека : 2000
    Продолжительность : 2 ч. 9 м.
    Вид битрейта : Постоянный
    Битрейт : 448 Кбит/сек
    Канал(ы) : 6 канала(ов)
    Расположение каналов : Front: L C R, Surround: L R, LFE
    Частота : 48,0 КГц
    Размер потока : 414 Мегабайт (28%)
    Выравнивание : Соединение по промежуткам
    Продолжительность промежутка : 42 мс. (1,00 видеокадр)
    Время предзагрузки промежутка : 512 ms

    Скриншоты


    --Мумия: Гробница Императора Драконов / The Mummy: Tomb of the Dragon Emperor-Страна: США, Германия
    Жанр: Боевик, Фэнтези, Приключения
    Год выпуска: 2008
    Продолжительность: 01:51:40
    Перевод: Профессиональный (полное дублирование)
    Cубтитры: Русские (вшитые на китайскую речь)
    Режиссер: Роб Коэн /Rob Cohen
    премьера (мир)............................30 июля 2008
    премьера (РФ).........................31 июля 2008, «UPI»
    релиз на DVD..23 сентября 2008, 26 августа 2008, «Юниверсал Пикчерс Рус»
    релиз на Blu-Ray......................9 декабря 2008, «Юниверсал Пикчерс Рус»
    В ролях: Брендан Фрейзер /Brendan Fraser/, Джет Ли /Jet Li/, Мария Белло /Maria Bello/, Джон Ханна /John Hannah/, Мишель Йео /Michelle Yeoh/, Люк Форд /Luke Ford/, Изабелла Ленг /Isabella Leong/
    Описание: Заколдованный волшебницей, безжалостный китайский император-дракон должен провести вечность в забвении. Его 10 000 воинов превратились в терракотовых воинов. Однако когда искатель приключений Алекс О`Коннелл случайно пробуждает властителя от вечной спячки, он вынужден искать помощи у единственных людей, которые знают, как справиться с воскресшими мертвецами: у своих родителей.
    Монарх возвращается к жизни, и наши герои понимают, что его сила за эту тысячу лет только увеличилась. Мумия готова поднять всю Азию в борьбе за мировое господство… если О`Коннеллы ее не остановят.

    Качество видео: HDRip ///СОВМЕСТИМО С БЫТОВЫМИ ПЛЕЕРАМИ///
    Формат видео: AVI
    Видео кодек: XviD
    Аудио кодек: AC3
    Видео: 720x304 (2.37:1), 23.976 fps, XviD build 47 ~1468 kbps avg, 0.28 bit/pixel
    Аудио: 48 kHz, AC3 Dolby Digital, 3/2 (L,C,R,l,r) + LFE ch, ~384.00 kbps avg

    MediaInfo

    General
    Complete name : E:\Mummy_Tomb of the Dragon_Emperor.avi
    Format : AVI
    Format/Info : Audio Video Interleave
    File size : 1.45 GiB
    Duration : 1h 51mn
    Overall bit rate : 1 862 Kbps
    Movie name : Мумия: Гробница Императора Драконов
    Writing application : VirtualDubModRus 1.5.10.2 (build 2540/release)
    Video
    ID : 0
    Format : MPEG-4 Visual
    Format profile : Advanced Simple@L5
    Format settings, BVOP : Yes
    Format settings, QPel : No
    Format settings, GMC : No warppoints
    Format settings, Matrix : Default (H.263)
    Codec ID : XVID
    Codec ID/Hint : XviD
    Duration : 1h 51mn
    Bit rate : 1 469 Kbps
    Width : 720 pixels
    Height : 304 pixels
    Display aspect ratio : 2.35:1
    Frame rate : 23.976 fps
    Resolution : 8 bits
    Colorimetry : 4:2:0
    Scan type : Progressive
    Bits/(Pixel*Frame) : 0.280
    Stream size : 1.15 GiB (79%)
    Writing library : XviD 1.2.0.dev47 (UTC 2006-11-01)
    Audio
    ID : 1
    Format : AC-3
    Format/Info : Audio Coding 3
    Codec ID : 2000
    Duration : 1h 51mn
    Bit rate mode : Constant
    Bit rate : 384 Kbps
    Channel(s) : 6 channels
    Channel positions : Front: L C R, Surround: L R, LFE
    Sampling rate : 48.0 KHz
    Stream size : 307 MiB (21%)
    Alignment : Split accross interleaves
    Interleave, duration : 42 ms (1.00 video frame)
    Interleave, preload duration : 500 ms

    Скриншоты


    -Сборник, не превышает по размеру один DVD диск (DVD5 или 4,37 гб)
    ///СОВМЕСТИМО С БЫТОВЫМИ ПЛЕЕРАМИ///
    -
    Скачать .torrent

    Скачать торрент-файл бесплатно и на максимальной скорости!

    Как скачивать? · Что такое торрент? · Рейтинг и ограничения

    !ВНИМАНИЕ!
    Сайт не распространяет и не хранит электронные версии произведений, а занимается лишь лишь предоставлением доступа к создаваемому пользователями каталогу ссылок на торрент-файлы, которые содержат только списки хеш-сумм, убедительная просьба с жалобами обращаться напрямую к пользователю. Файлы для обмена на трекере предоставлены пользователями сайта, и администрация не несёт ответственности за их содержание. Просьба не заливать файлы, защищенные авторскими правами, а также файлы нелегального содержания!


    _________________

    ░▒▓█▀▄▀▄▀▄█▓▒░
    [Профиль] [ЛС]
    Показать сообщения:    
    Ответить на тему

    Текущее время: Сегодня, в 20:20

    Часовой пояс: GMT + 2



    Вы не можете начинать темы
    Вы не можете отвечать на сообщения
    Вы не можете редактировать свои сообщения
    Вы не можете удалять свои сообщения
    Вы не можете голосовать в опросах
    Вы не можете прикреплять файлы к сообщениям
    Вы не можете скачивать файлы