Register  ·  Log in
Forgot password?

  • Битва за свободу / Кристиада / For Greater Glory: The True Story of Cristiada (Дин Райт / Dean Wright) [2012, Мексика, драма, военный, история, HDRip] MVO

    Reply to topic
    Author Message


    Post 25-Mar-2015 00:30



    Битва за свободу / Кристиада / For Greater Glory: The True Story of Cristiada
    Страна: Мексика
    Жанр: драма, военный, история
    Год выпуска: 2012
    Продолжительность: 02:25:23
    Перевод: Профессиональный (многоголосый закадровый)
    Cубтитры: нет
    Режиссер: Дин Райт / Dean Wright
    В ролях: Энди Гарсиа, Маурицио Кури, Адриан Алонсо, Рубен Бладес, Каталина Сандино Морено, Эдуардо Верастеги, Патриция Гарза, Алан Рамирез, Эстефания Алехандра, Оскар Айзек, Рауль Адалид
    Описание: Фильм описывает события Гражданской войны в Мексике, которая началась в 1926 году. В ходе этой войны правительство страны и местные католики выясняли, чья религия круче и чьи стволы длиннее.
    Качество видео: HDRip
    Формат видео: AVI
    Видео: 720x304 (2.37:1), 23.976 fps, XviD build 50 ~1925 kbps avg, 0.37 bit/pixel
    Аудио: 48 kHz, AC3 Dolby Digital, 2/0 (L,R) ch, ~192 kbps


    Битва за свободу - For.Greater.Glory.The.True.Story.of.Cristiada [by Edich2].avi
    Format : AVI
    Format/Info : Audio Video Interleave
    Format profile : OpenDML
    File size : 2.16 GiB
    Duration : 2h 25mn
    Overall bit rate : 2 124 Kbps
    Movie name : Битва за свободу - For.Greater.Glory.The.True.Story.of.Cristiada [by Edich2]
    Director : by Edich2
    Writing application : VirtualDubMod | || (build 2550/release)
    Comment :
    ID : 0
    Format : MPEG-4 Visual
    Format profile : Advanced Simple@L5
    Format settings, BVOP : 2
    Format settings, QPel : No
    Format settings, GMC : No warppoints
    Format settings, Matrix : Custom
    Codec ID : XVID
    Codec ID/Hint : XviD
    Duration : 2h 25mn
    Bit rate : 1 920 Kbps
    Width : 720 pixels
    Height : 304 pixels
    Display aspect ratio : 2.35:1
    Frame rate : 23.976 fps
    Color space : YUV
    Chroma subsampling : 4:2:0
    Bit depth : 8 bits
    Scan type : Progressive
    Compression mode : Lossy
    Bits/(Pixel*Frame) : 0.366
    Stream size : 1.95 GiB (90%)
    Writing library : XviD 1.2.1 (UTC 2008-12-04)
    ID : 1
    Format : AC-3
    Format/Info : Audio Coding 3
    Mode extension : CM (complete main)
    Format settings, Endianness : Big
    Codec ID : 2000
    Duration : 2h 25mn
    Bit rate mode : Constant
    Bit rate : 192 Kbps
    Channel(s) : 2 channels
    Channel positions : Front: L R
    Sampling rate : 48.0 KHz
    Bit depth : 16 bits
    Compression mode : Lossy
    Stream size : 200 MiB (9%)
    Alignment : Split accross interleaves
    Interleave, duration : 42 ms (1.00 video frame)
    Interleave, preload duration : 500 ms


    Download .torrent

    Download free and at maximum speed!

    How to Download? · What is a torrent? · Ratings and Limitations

    The site does not extend and does not store electronic(digital) versions of products, and only gives access to a reference catalogue created by users on torrent-files which contain only lists of the hash-sums, the earnest entreaty, with complaints(abuse) to access directly to the user. Files for an exchange on tracker are given by users of a site, and the administration does not bear the responsibility for their maintenance. The request to not fill in the files protected by copyrights, and also files of the illegal maintenance!

    [Profile] [PM]
    Display posts from previous:    
    Reply to topic

    The time now is: Today 00:36

    All times are GMT + 3 Hours

    You cannot post new topics in this forum
    You cannot reply to topics in this forum
    You cannot edit your posts in this forum
    You cannot delete your posts in this forum
    You cannot vote in polls in this forum
    You cannot attach files in this forum
    You cannot download files in this forum