BitTorrentTracker PerecTracker.org
BitTorrentTracker PerecTracker.org
    
Регистрация  ·  Вход
 
 · 
Забыли пароль?

  • Битва за свободу / Кристиада / For Greater Glory: The True Story of Cristiada (Дин Райт / Dean Wright) [2012, Мексика, драма, военный, история, HDRip] MVO

    Ответить на тему
     
    Автор Сообщение

    Light

    Создавать темы 24-Мар-2015 23:30

           

    [Цитировать]

    Битва за свободу / Кристиада / For Greater Glory: The True Story of Cristiada
    Страна: Мексика
    Жанр: драма, военный, история
    Год выпуска: 2012
    Продолжительность: 02:25:23
    Перевод: Профессиональный (многоголосый закадровый)
    Cубтитры: нет
    Режиссер: Дин Райт / Dean Wright
    В ролях: Энди Гарсиа, Маурицио Кури, Адриан Алонсо, Рубен Бладес, Каталина Сандино Морено, Эдуардо Верастеги, Патриция Гарза, Алан Рамирез, Эстефания Алехандра, Оскар Айзек, Рауль Адалид
    Описание: Фильм описывает события Гражданской войны в Мексике, которая началась в 1926 году. В ходе этой войны правительство страны и местные католики выясняли, чья религия круче и чьи стволы длиннее.
    Сэмпл: https://yadi.sk/i/6af3_IU1fV9VM
    Качество видео: HDRip
    Формат видео: AVI
    Видео: 720x304 (2.37:1), 23.976 fps, XviD build 50 ~1925 kbps avg, 0.37 bit/pixel
    Аудио: 48 kHz, AC3 Dolby Digital, 2/0 (L,R) ch, ~192 kbps

    MediaInfo

    Битва за свободу - For.Greater.Glory.The.True.Story.of.Cristiada [by Edich2].avi
    Format : AVI
    Format/Info : Audio Video Interleave
    Format profile : OpenDML
    File size : 2.16 GiB
    Duration : 2h 25mn
    Overall bit rate : 2 124 Kbps
    Movie name : Битва за свободу - For.Greater.Glory.The.True.Story.of.Cristiada [by Edich2]
    Director : by Edich2
    Writing application : VirtualDubMod 1.5.10.3 | www.virtualdub-fr.org || (build 2550/release)
    Comment : RuTracker.org
    Video
    ID : 0
    Format : MPEG-4 Visual
    Format profile : Advanced Simple@L5
    Format settings, BVOP : 2
    Format settings, QPel : No
    Format settings, GMC : No warppoints
    Format settings, Matrix : Custom
    Codec ID : XVID
    Codec ID/Hint : XviD
    Duration : 2h 25mn
    Bit rate : 1 920 Kbps
    Width : 720 pixels
    Height : 304 pixels
    Display aspect ratio : 2.35:1
    Frame rate : 23.976 fps
    Color space : YUV
    Chroma subsampling : 4:2:0
    Bit depth : 8 bits
    Scan type : Progressive
    Compression mode : Lossy
    Bits/(Pixel*Frame) : 0.366
    Stream size : 1.95 GiB (90%)
    Writing library : XviD 1.2.1 (UTC 2008-12-04)
    Audio
    ID : 1
    Format : AC-3
    Format/Info : Audio Coding 3
    Mode extension : CM (complete main)
    Format settings, Endianness : Big
    Codec ID : 2000
    Duration : 2h 25mn
    Bit rate mode : Constant
    Bit rate : 192 Kbps
    Channel(s) : 2 channels
    Channel positions : Front: L R
    Sampling rate : 48.0 KHz
    Bit depth : 16 bits
    Compression mode : Lossy
    Stream size : 200 MiB (9%)
    Alignment : Split accross interleaves
    Interleave, duration : 42 ms (1.00 video frame)
    Interleave, preload duration : 500 ms

    Скриншоты


    Скачать .torrent

    Скачать торрент-файл бесплатно и на максимальной скорости!

    Как скачивать? · Что такое торрент? · Рейтинг и ограничения

    !ВНИМАНИЕ!
    Сайт не распространяет и не хранит электронные версии произведений, а занимается лишь лишь предоставлением доступа к создаваемому пользователями каталогу ссылок на торрент-файлы, которые содержат только списки хеш-сумм, убедительная просьба с жалобами обращаться напрямую к пользователю. Файлы для обмена на трекере предоставлены пользователями сайта, и администрация не несёт ответственности за их содержание. Просьба не заливать файлы, защищенные авторскими правами, а также файлы нелегального содержания!


    _________________
    [Профиль] [ЛС]
    Показать сообщения:    
    Ответить на тему

    Текущее время: Сегодня, в 20:56

    Часовой пояс: GMT + 2



    Вы не можете начинать темы
    Вы не можете отвечать на сообщения
    Вы не можете редактировать свои сообщения
    Вы не можете удалять свои сообщения
    Вы не можете голосовать в опросах
    Вы не можете прикреплять файлы к сообщениям
    Вы не можете скачивать файлы