BitTorrentTracker PerecTracker.org
BitTorrentTracker PerecTracker.org
    
Регистрация  ·  Вход
 
 · 
Забыли пароль?

  • Любовь, товарищи! / Laska, soudruhu! / Mieletön elokuu (Тару Мякеля / Taru Makela) [2013, Чехия, Финляндия, Норвегия, комедия, DVDRip] VO (Kass) + Original

    Ответить на тему
     
    Автор Сообщение

    Light

    Создавать темы 24-Мар-2015 10:54

           

    [Цитировать]

    Любовь, товарищи! / Laska, soudruhu!
    Страна: Чехия, Финляндия, Норвегия
    Жанр: комедия
    Год выпуска: 2013
    Продолжительность: 1:40:21
    Перевод: Одноголосый закадровый (женский) Kass
    Cубтитры: нет
    Оригинальная аудиодорожка: чешский, финский, английский
    Режиссер: Тару Мякеля / Taru Makela
    В ролях: Кати Оутинен / Kati Outinen, Мирослав Этцлер / Miroslav Etzler, Лаура Бирн / Laura Birn, Криштоф Гадек / Krystof Hadek, Елена Лееве / Elena Leeve, Эско Салминен / Esko Salminen и др.
    Описание: Эльза Ахо – владелица шляпного салона и к тому же известная ясновидящая. К ее услугам то и дело прибегает отдел по розыску без вести пропавших. Но этот дар нельзя использовать себе во благо, поэтому Эльза не знает, что в серой социалистической Праге, за «железным занавесом», прозябает тот, кого она так пылко любила в юности, из-за кого так и не вышла замуж. Она считает его мертвым.
    Восьмой Фестиваль Молодежи и Студентов вновь сталкивает две разных системы, два прямо противоположных лагеря. Этот яркий, красочный и безрассудный водоворот затягивает даже тех, кому по штату положено стоять на страже идеалов социализма.
    Комедия о любви, которая побеждает там, где «мир и дружба» бессильны.
    Русские (и Гагарин!) с дремучим чешским акцентом не уступят голливудским, с дремучим английским!
    Доп. информация: Исходник - http://perectracker.org/viewtopic.php?t=4967487
    Сэмпл: http://sendfile.su/1099499
    Качество видео: DVDRip
    Формат видео: AVI
    Видео: 720x304 (2.37:1), 25 fps, XviD build 64 ~1495 kbps avg, 0.27 bit/pixel
    Аудио 1: Русский (Dolby AC3, 6 ch) 448 Кбит/сек, 48,0 КГц
    Аудио 2: Cesky (Dolby AC3, 2 ch) 192 Кбит/сек, 48,0 КГц - отдельным файлом

    MediaInfo

    General
    Complete name : C:\Downloads\Laska_Soudruhu_2013_DVDrip\Laska_Soudruhu_2013_DVDrip_RusVO.avi
    Format : AVI
    Format/Info : Audio Video Interleave
    File size : 1.37 GiB
    Duration : 1h 40mn
    Overall bit rate : 1 954 Kbps
    Writing library : VirtualDub build 32842/release
    Video
    ID : 0
    Format : MPEG-4 Visual
    Format profile : Advanced Simple@L5
    Format settings, BVOP : 1
    Format settings, QPel : No
    Format settings, GMC : No warppoints
    Format settings, Matrix : Default (H.263)
    Codec ID : XVID
    Codec ID/Hint : XviD
    Duration : 1h 40mn
    Bit rate : 1 496 Kbps
    Width : 720 pixels
    Height : 304 pixels
    Display aspect ratio : 2.35:1
    Frame rate : 25.000 fps
    Color space : YUV
    Chroma subsampling : 4:2:0
    Bit depth : 8 bits
    Scan type : Progressive
    Compression mode : Lossy
    Bits/(Pixel*Frame) : 0.273
    Stream size : 1.05 GiB (77%)
    Writing library : XviD 64
    Audio
    ID : 1
    Format : AC-3
    Format/Info : Audio Coding 3
    Mode extension : CM (complete main)
    Format settings, Endianness : Big
    Codec ID : 2000
    Duration : 1h 40mn
    Bit rate mode : Constant
    Bit rate : 448 Kbps
    Channel(s) : 6 channels
    Channel positions : Front: L C R, Side: L R, LFE
    Sampling rate : 48.0 KHz
    Bit depth : 16 bits
    Compression mode : Lossy
    Stream size : 322 MiB (23%)
    Alignment : Aligned on interleaves
    Interleave, duration : 40 ms (1.00 video frame)
    Interleave, preload duration : 512 ms

    Скриншот c названием фильма

    Скриншоты

    Скачать .torrent

    Скачать торрент-файл бесплатно и на максимальной скорости!

    Как скачивать? · Что такое торрент? · Рейтинг и ограничения

    !ВНИМАНИЕ!
    Сайт не распространяет и не хранит электронные версии произведений, а занимается лишь лишь предоставлением доступа к создаваемому пользователями каталогу ссылок на торрент-файлы, которые содержат только списки хеш-сумм, убедительная просьба с жалобами обращаться напрямую к пользователю. Файлы для обмена на трекере предоставлены пользователями сайта, и администрация не несёт ответственности за их содержание. Просьба не заливать файлы, защищенные авторскими правами, а также файлы нелегального содержания!


    _________________
    [Профиль] [ЛС]
    Показать сообщения:    
    Ответить на тему

    Текущее время: Сегодня, в 18:15

    Часовой пояс: GMT + 2



    Вы не можете начинать темы
    Вы не можете отвечать на сообщения
    Вы не можете редактировать свои сообщения
    Вы не можете удалять свои сообщения
    Вы не можете голосовать в опросах
    Вы не можете прикреплять файлы к сообщениям
    Вы не можете скачивать файлы