BitTorrentTracker PerecTracker.org
BitTorrentTracker PerecTracker.org
    
Регистрация  ·  Вход
 
 · 
Забыли пароль?

  • Осколки хрустальной туфельки (Станислав Митин) [2015, Россия, мелодрама, HDTV 1080i]

    Ответить на тему
     
    Автор Сообщение

    rechyn

    Создавать темы 24-Мар-2015 02:30

           

    [Цитировать]

    Осколки хрустальной туфельки
    Год выпуска: 2015
    Производство: Россия, кинокомпания "Русское"
    Жанр: Мелодрама
    Продолжительность: 01:31:26
    Субтитры: нет
    Режиссёр:Станислав Митин
    В ролях: Евгений Вальц, Алина Кизиярова, Анна Тараторкина, Светлана Немоляева, Евгений Сахаров (II), Ольга Хохлова, Павел Любимцев, Виталия Корниенко
    Описание: В стареньком пальтишке с картонным чемоданом приезжает фельдшер Юля покорять столицу. Тетя Валя устраивает племянницу сиделкой с проживанием к Алле Николаевне – обеспеченной и капризной старушке, перенесшей инсульт. Проходит немного времени, и Алла Николаевна уже души не чает в своей сиделке, а ее сын Павел почти влюблен в Юлю. Только жена Павла, Лена, не верит в "доброго ангела". И, кажется, она права…

    Качество: HDTV 1080i
    Контейнер: TS
    Видео: MPEG4 Video (H264) 1920x1080, ~ 7070 Кбит/сек, 25.00fps 0.136 bit/pixel
    Аудио: MP2, 2 канала, 48,0 КГц, ~256 kbps
    Сторонней рекламы нет!

    MI

    ОбщееИдентификатор : 1 (0x1)Полное имя : F:\Фильмы торренты\Oskolki.Hrustalnoy.Tufelki.2015.HDTV.(1080i).MediaClub.tsФормат : MPEG-TSРазмер файла : 4,92 ГбайтПродолжительность : 1 ч. 31 м.Режим общего битрейта : ПеременныйОбщий поток : 7709 Кбит/сек
    ВидеоИдентификатор : 67 (0x43)Идентификатор меню : 1 (0x1)Формат : AVCФормат/Информация : Advanced Video CodecПрофиль формата : High@L4.0Параметр CABAC формата : ДаПараметр ReFrames формата : 4 кадраИдентификатор кодека : 27Продолжительность : 1 ч. 31 м.Битрейт : 7070 Кбит/секШирина : 1920 пикселейВысота : 1080 пикселейСоотношение сторон : 16:9Частота кадров : 25,000 кадров/секСтандарт вещания : ComponentЦветовое пространство : YUVСубдискретизация насыщенности : 4:2:0Битовая глубина : 8 битТип развёртки : ЧересстрочнаяПорядок развёртки : Верхнее поле первоеБит/(Пиксели*Кадры) : 0.136Размер потока : 4,51 Гбайт (92%)Основные цвета : BT.709Характеристики трансфера : BT.709Коэффициенты матрицы : BT.709
    АудиоИдентификатор : 68 (0x44)Идентификатор меню : 1 (0x1)Формат : MPEG AudioВерсия формата : Version 1Профиль формата : Layer 2Идентификатор кодека : 3Продолжительность : 1 ч. 31 м.Вид битрейта : ПостоянныйБитрейт : 256 Кбит/секКаналы : 2 каналаЧастота : 48,0 КГцМетод сжатия : С потерямиЗадержка видео : -80 мс.Размер потока : 167 Мбайт (3%)Язык : English
    Раздача группы:
    Отдельное спасибо nikolspup за предоставление материала.

    Скриншоты

    Скриншот с названием фильма

    Скачать .torrent

    Скачать торрент-файл бесплатно и на максимальной скорости!

    Как скачивать? · Что такое торрент? · Рейтинг и ограничения

    !ВНИМАНИЕ!
    Сайт не распространяет и не хранит электронные версии произведений, а занимается лишь лишь предоставлением доступа к создаваемому пользователями каталогу ссылок на торрент-файлы, которые содержат только списки хеш-сумм, убедительная просьба с жалобами обращаться напрямую к пользователю. Файлы для обмена на трекере предоставлены пользователями сайта, и администрация не несёт ответственности за их содержание. Просьба не заливать файлы, защищенные авторскими правами, а также файлы нелегального содержания!


    _________________
    [Профиль] [ЛС]
    Показать сообщения:    
    Ответить на тему

    Текущее время: Сегодня, в 16:32

    Часовой пояс: GMT + 2



    Вы не можете начинать темы
    Вы не можете отвечать на сообщения
    Вы не можете редактировать свои сообщения
    Вы не можете удалять свои сообщения
    Вы не можете голосовать в опросах
    Вы не можете прикреплять файлы к сообщениям
    Вы не можете скачивать файлы