BitTorrentTracker PerecTracker.org
BitTorrentTracker PerecTracker.org
    
Регистрация  ·  Вход
 
 · 
Забыли пароль?

  • Глушь / Backcountry (Адам МакДональд / Adam MacDonald) [2014, Канада, триллер, драма, ужасы, HDRip] VO (Хихикающий доктор)

    Ответить на тему
     
    Автор Сообщение

    Light

    Создавать темы 23-Мар-2015 22:18

           

    [Цитировать]

    Глушь / Backcountry
    Страна: Канада
    Жанр: триллер, драма, ужасы
    Год выпуска: 2014
    Продолжительность: 01:31:30
    Перевод: Одноголосый закадровый Хихикающий доктор
    Cубтитры: нет
    Оригинальная аудиодорожка: нет
    Режиссер: Адам МакДональд / Adam MacDonald
    В ролях: Мисси Перегрим, Эрик Бальфур, Николас Кэмпбелл, Мелани Маллен, Джефф Руп, Эшли Нэй
    Описание: Городская пара оказалась без провианта посреди дикой глуши на территории хищного черного медведя.
    Сэмпл: http://multi-up.com/1039943
    Качество видео: HDRip (исходник не известен)
    Формат видео: AVI
    Видео: Xvid 640x272 23.98fps 929 Kbps
    Аудио: MPEG Audio Layer 3 44100Hz stereo 192kbps

    MediaInfo

    Format : AVI
    Format/Info : Audio Video Interleave
    File size : 740 MiB
    Duration : 1h 31mn
    Overall bit rate : 1 130 Kbps
    Writing application : VirtualDubMod 1.5.10.3 (build 2550/release)
    Writing library : VirtualDubMod build 2550/release
    Video
    ID : 0
    Format : MPEG-4 Visual
    Format profile : Advanced Simple@L5
    Format settings, BVOP : Yes
    Format settings, QPel : No
    Format settings, GMC : No warppoints
    Format settings, Matrix : Default (H.263)
    Muxing mode : Packed bitstream
    Codec ID : XVID
    Codec ID/Hint : XviD
    Duration : 1h 31mn
    Bit rate : 929 Kbps
    Width : 640 pixels
    Height : 272 pixels
    Display aspect ratio : 2.35:1
    Frame rate : 23.976 fps
    Resolution : 8 bits
    Colorimetry : 4:2:0
    Scan type : Progressive
    Bits/(Pixel*Frame) : 0.222
    Stream size : 608 MiB (82%)
    Writing library : XviD 64
    Audio
    ID : 1
    Format : MPEG Audio
    Format version : Version 1
    Format profile : Layer 3
    Codec ID : 55
    Codec ID/Hint : MP3
    Duration : 1h 31mn
    Bit rate mode : Constant
    Bit rate : 192 Kbps
    Channel(s) : 2 channels
    Sampling rate : 44.1 KHz
    Stream size : 126 MiB (17%)
    Alignment : Split accross interleaves
    Interleave, duration : 42 ms (1.00 video frame)
    Interleave, preload duration : 500 ms

    Скриншот c названием фильма

    Скриншоты

    Скачать .torrent

    Скачать торрент-файл бесплатно и на максимальной скорости!

    Как скачивать? · Что такое торрент? · Рейтинг и ограничения

    !ВНИМАНИЕ!
    Сайт не распространяет и не хранит электронные версии произведений, а занимается лишь лишь предоставлением доступа к создаваемому пользователями каталогу ссылок на торрент-файлы, которые содержат только списки хеш-сумм, убедительная просьба с жалобами обращаться напрямую к пользователю. Файлы для обмена на трекере предоставлены пользователями сайта, и администрация не несёт ответственности за их содержание. Просьба не заливать файлы, защищенные авторскими правами, а также файлы нелегального содержания!


    _________________
    [Профиль] [ЛС]
    Показать сообщения:    
    Ответить на тему

    Текущее время: Сегодня, в 16:18

    Часовой пояс: GMT + 2



    Вы не можете начинать темы
    Вы не можете отвечать на сообщения
    Вы не можете редактировать свои сообщения
    Вы не можете удалять свои сообщения
    Вы не можете голосовать в опросах
    Вы не можете прикреплять файлы к сообщениям
    Вы не можете скачивать файлы