Register  ·  Log in
Forgot password?

  • Глушь / Backcountry (Адам МакДональд / Adam MacDonald) [2014, Канада, триллер, драма, ужасы, HDRip] VO (Хихикающий доктор)

    Reply to topic
    Author Message


    Post 23-Mar-2015 23:18



    Глушь / Backcountry
    Страна: Канада
    Жанр: триллер, драма, ужасы
    Год выпуска: 2014
    Продолжительность: 01:31:30
    Перевод: Одноголосый закадровый Хихикающий доктор
    Cубтитры: нет
    Оригинальная аудиодорожка: нет
    Режиссер: Адам МакДональд / Adam MacDonald
    В ролях: Мисси Перегрим, Эрик Бальфур, Николас Кэмпбелл, Мелани Маллен, Джефф Руп, Эшли Нэй
    Описание: Городская пара оказалась без провианта посреди дикой глуши на территории хищного черного медведя.
    Качество видео: HDRip (исходник не известен)
    Формат видео: AVI
    Видео: Xvid 640x272 23.98fps 929 Kbps
    Аудио: MPEG Audio Layer 3 44100Hz stereo 192kbps


    Format : AVI
    Format/Info : Audio Video Interleave
    File size : 740 MiB
    Duration : 1h 31mn
    Overall bit rate : 1 130 Kbps
    Writing application : VirtualDubMod (build 2550/release)
    Writing library : VirtualDubMod build 2550/release
    ID : 0
    Format : MPEG-4 Visual
    Format profile : Advanced Simple@L5
    Format settings, BVOP : Yes
    Format settings, QPel : No
    Format settings, GMC : No warppoints
    Format settings, Matrix : Default (H.263)
    Muxing mode : Packed bitstream
    Codec ID : XVID
    Codec ID/Hint : XviD
    Duration : 1h 31mn
    Bit rate : 929 Kbps
    Width : 640 pixels
    Height : 272 pixels
    Display aspect ratio : 2.35:1
    Frame rate : 23.976 fps
    Resolution : 8 bits
    Colorimetry : 4:2:0
    Scan type : Progressive
    Bits/(Pixel*Frame) : 0.222
    Stream size : 608 MiB (82%)
    Writing library : XviD 64
    ID : 1
    Format : MPEG Audio
    Format version : Version 1
    Format profile : Layer 3
    Codec ID : 55
    Codec ID/Hint : MP3
    Duration : 1h 31mn
    Bit rate mode : Constant
    Bit rate : 192 Kbps
    Channel(s) : 2 channels
    Sampling rate : 44.1 KHz
    Stream size : 126 MiB (17%)
    Alignment : Split accross interleaves
    Interleave, duration : 42 ms (1.00 video frame)
    Interleave, preload duration : 500 ms

    Скриншот c названием фильма


    Download .torrent

    Download free and at maximum speed!

    How to Download? · What is a torrent? · Ratings and Limitations

    The site does not extend and does not store electronic(digital) versions of products, and only gives access to a reference catalogue created by users on torrent-files which contain only lists of the hash-sums, the earnest entreaty, with complaints(abuse) to access directly to the user. Files for an exchange on tracker are given by users of a site, and the administration does not bear the responsibility for their maintenance. The request to not fill in the files protected by copyrights, and also files of the illegal maintenance!

    [Profile] [PM]
    Display posts from previous:    
    Reply to topic

    The time now is: Today 22:19

    All times are GMT + 3 Hours

    You cannot post new topics in this forum
    You cannot reply to topics in this forum
    You cannot edit your posts in this forum
    You cannot delete your posts in this forum
    You cannot vote in polls in this forum
    You cannot attach files in this forum
    You cannot download files in this forum