BitTorrentTracker PerecTracker.org
BitTorrentTracker PerecTracker.org
    
Регистрация  ·  Вход
 
 · 
Забыли пароль?

  • Без продыху / Без передышки / Бездыханные / Убить и закопать / Breathless (Джесси Баже / Jesse Baget) [2012, США, Триллер, криминал, HDTVRip] MVO

    Ответить на тему
     
    Автор Сообщение

    Light

    Создавать темы 23-Мар-2015 22:18

           

    [Цитировать]

    Без продыху / Без передышки / Бездыханные / Убить и закопать / Breathless
    Страна: США
    Жанр: Триллер, криминал
    Год выпуска: 2012
    Продолжительность: 01:27:29
    Перевод: Профессиональный (многоголосый закадровый)
    Cубтитры: нет
    Режиссер: Джесси Баже / Jesse Baget
    В ролях: Джина Гершон, Келли Гиддиш, Вэл Килмер, Рэй Лиотта, Уэйн Дювалл
    Описание: По статистике ФБР жители штата Техас считаются самым вооруженным населением в Северной Америке. У техасцев даже бытует соответствующий девиз: «владение оружием является нашей неотъемлемой составляющей». Но...
    Но самым недооцененным оружием в Техасе является обиженная женщина. Женщин, вообще, обижать не рекомендуется. А коль уж обидел – пеняй на себя...
    Техасская домохозяйка Лорна знает: когда выясняешь, что твой муж – «змея», то друг – это всё, что у тебя остается.
    Муж Лорны оказался «змеей». Он собирался капитально обидеть супругу. И чтобы устроить негодяю достойную взбучку, Лорна позвала на помощь свою лучшую подругу.
    Однако серьезные вопросы к проштрафившемуся мужу есть не только у его жены и её лучшей подруги. Срочно навестить бедолагу жаждет и местный шериф. Да и кое-кто еще. А посему, к одиноко стоящему в пустынной местности дому Лорны, в котором вершится непредсказуемая семейная разборка, активно подтягиваются посторонние личности. К тому же, у одного из персонажей этой истории имеется тайный, очень коварный и очень кровавый план.
    Кто же намерен его осуществить? И в чем он заключается?
    Доп. информация: За запись исходника спасибо Romanok8691
    Сэмпл: https://yadi.sk/i/4h0lbK3pfTLJX
    Релиз
    Качество видео: HDTVRip [Исходник 1080i]
    Формат видео: AVI
    Видео: 720x400 (1.80:1), 25 fps, XviD build 50 ~2010 kbps avg, 0.28 bit/pixel
    Аудио: 48 kHz, AC3 Dolby Digital, 2/0 (L,R) ch, ~192 kbps

    MediaInfo

    Убить и закопать - Breathless [by Edich2].avi
    Format : AVI
    Format/Info : Audio Video Interleave
    File size : 1.35 GiB
    Duration : 1h 27mn
    Overall bit rate : 2 212 Kbps
    Movie name : Убить и закопать - Breathless [by Edich2]
    Director : by Edich2
    Writing application : VirtualDubMod 1.5.10.3 | www.virtualdub-fr.org || (build 2550/release)
    Comment : RuTracker.org
    Video
    ID : 0
    Format : MPEG-4 Visual
    Format profile : Advanced Simple@L5
    Format settings, BVOP : 1
    Format settings, QPel : No
    Format settings, GMC : No warppoints
    Format settings, Matrix : Default (MPEG)
    Codec ID : XVID
    Codec ID/Hint : XviD
    Duration : 1h 27mn
    Bit rate : 2 010 Kbps
    Width : 720 pixels
    Height : 400 pixels
    Display aspect ratio : 16:9
    Frame rate : 25.000 fps
    Color space : YUV
    Chroma subsampling : 4:2:0
    Bit depth : 8 bits
    Scan type : Progressive
    Compression mode : Lossy
    Bits/(Pixel*Frame) : 0.279
    Stream size : 1.23 GiB (91%)
    Writing library : XviD 1.2.1 (UTC 2008-12-04)
    Audio
    ID : 1
    Format : AC-3
    Format/Info : Audio Coding 3
    Mode extension : CM (complete main)
    Format settings, Endianness : Big
    Codec ID : 2000
    Duration : 1h 27mn
    Bit rate mode : Constant
    Bit rate : 192 Kbps
    Channel(s) : 2 channels
    Channel positions : Front: L R
    Sampling rate : 48.0 KHz
    Bit depth : 16 bits
    Compression mode : Lossy
    Stream size : 120 MiB (9%)
    Alignment : Split accross interleaves
    Interleave, duration : 40 ms (1.00 video frame)
    Interleave, preload duration : 500 ms

    Скриншоты



    Скачать .torrent

    Скачать торрент-файл бесплатно и на максимальной скорости!

    Как скачивать? · Что такое торрент? · Рейтинг и ограничения

    !ВНИМАНИЕ!
    Сайт не распространяет и не хранит электронные версии произведений, а занимается лишь лишь предоставлением доступа к создаваемому пользователями каталогу ссылок на торрент-файлы, которые содержат только списки хеш-сумм, убедительная просьба с жалобами обращаться напрямую к пользователю. Файлы для обмена на трекере предоставлены пользователями сайта, и администрация не несёт ответственности за их содержание. Просьба не заливать файлы, защищенные авторскими правами, а также файлы нелегального содержания!


    _________________
    [Профиль] [ЛС]
    Показать сообщения:    
    Ответить на тему

    Текущее время: Сегодня, в 19:52

    Часовой пояс: GMT + 2



    Вы не можете начинать темы
    Вы не можете отвечать на сообщения
    Вы не можете редактировать свои сообщения
    Вы не можете удалять свои сообщения
    Вы не можете голосовать в опросах
    Вы не можете прикреплять файлы к сообщениям
    Вы не можете скачивать файлы