Register  ·  Log in
Forgot password?

  • Мерзость / Грязь / Muck (Стив Уолш / Steve Wolsh) [2015, США, ужасы, HDRip] VO (den904)

    Reply to topic
    Author Message


    Post 23-Mar-2015 23:18



    Мерзость / Грязь / Muck
    Страна: США
    Жанр: ужасы
    Год выпуска: 2015
    Продолжительность: 01:38:33
    Перевод: Одноголосый закадровый den904
    Cубтитры: нет
    Оригинальная аудиодорожка: нет
    Режиссер: Стив Уолш / Steve Wolsh
    В ролях: Брайс Дрэйпер, Стефани Даниэльсон, Лаура Джейкобс, Грант Алан, Лорен Франческа, Жаклин Свидберг
    Описание: Группа друзей оказалась в западне, провалившись в древнее захоронение, на выходе из которого их поджидал убийца — воплощение чистого Зла. Героям предстоит выбрать — противостоять злу и сражаться, или вернуться не самой приятной дорогой обратно…
    Внимание!!! В фильме присутствует большое количество ненормативной лексики!!!!!
    Качество видео: HDRip (исходник не известен)
    Формат видео: AVI
    Видео: Xvid 656x352 23.98fps 922 Kbps
    Аудио: MPEG Audio Layer 3 48000Hz stereo 128kbps


    Format : AVI
    Format/Info : Audio Video Interleave
    File size : 747 MiB
    Duration : 1h 38mn
    Overall bit rate : 1 059 Kbps
    Writing application : VirtualDubMod (build 2550/release)
    Writing library : VirtualDubMod build 2550/release
    ID : 0
    Format : MPEG-4 Visual
    Format profile : Advanced Simple@L5
    Format settings, BVOP : Yes
    Format settings, QPel : No
    Format settings, GMC : No warppoints
    Format settings, Matrix : Default (MPEG)
    Codec ID : XVID
    Codec ID/Hint : XviD
    Duration : 1h 38mn
    Bit rate : 922 Kbps
    Width : 656 pixels
    Height : 352 pixels
    Display aspect ratio : 1.864
    Frame rate : 23.976 fps
    Resolution : 8 bits
    Colorimetry : 4:2:0
    Scan type : Progressive
    Bits/(Pixel*Frame) : 0.166
    Stream size : 650 MiB (87%)
    Writing library : XviD 73
    ID : 1
    Format : MPEG Audio
    Format version : Version 1
    Format profile : Layer 3
    Format_Settings_Mode : Joint stereo
    Format_Settings_ModeExtension : MS Stereo
    Codec ID : 55
    Codec ID/Hint : MP3
    Duration : 1h 38mn
    Bit rate mode : Constant
    Bit rate : 128 Kbps
    Channel(s) : 2 channels
    Sampling rate : 48.0 KHz
    Stream size : 90.3 MiB (12%)
    Alignment : Aligned on interleaves
    Interleave, duration : 42 ms (1.00 video frame)
    Interleave, preload duration : 504 ms

    Скриншот c названием фильма


    Download .torrent

    Download free and at maximum speed!

    How to Download? · What is a torrent? · Ratings and Limitations

    The site does not extend and does not store electronic(digital) versions of products, and only gives access to a reference catalogue created by users on torrent-files which contain only lists of the hash-sums, the earnest entreaty, with complaints(abuse) to access directly to the user. Files for an exchange on tracker are given by users of a site, and the administration does not bear the responsibility for their maintenance. The request to not fill in the files protected by copyrights, and also files of the illegal maintenance!

    [Profile] [PM]
    Display posts from previous:    
    Reply to topic

    The time now is: Today 11:06

    All times are GMT + 3 Hours

    You cannot post new topics in this forum
    You cannot reply to topics in this forum
    You cannot edit your posts in this forum
    You cannot delete your posts in this forum
    You cannot vote in polls in this forum
    You cannot attach files in this forum
    You cannot download files in this forum