BitTorrentTracker PerecTracker.org
BitTorrentTracker PerecTracker.org
    
Регистрация  ·  Вход
 
 · 
Забыли пароль?

  • Запретная территория / Wetlands / Feuchtgebiete (Дэвид Внендт / David Wnendt) [2013, Германия, комедия, драма, HDRip] DVO (2D) + Sub Rus + Original Ger

    Ответить на тему
     
    Автор Сообщение

    Light

    Создавать темы 23-Мар-2015 22:18

           

    [Цитировать]

    Запретная территория / Wetlands / Feuchtgebiete
    Страна: Германия
    Жанр: комедия, драма
    Год выпуска: 2013
    Продолжительность: 01:49:16
    Перевод: Любительский (двухголосый закадровый) 2D
    Cубтитры: русские
    Оригинальная аудиодорожка: немецкий
    Режиссер: Дэвид Внендт / David Wnendt
    В ролях: Карла Юри, Кристоф Летковски, Марлена Крузе, Мерет Беккер, Аксель Мильберг, Пери Баумейстер, Эдгар Зельге, Клара Вунш, Лудгер Бёкельман, Бернардо Ариас Поррас
    Описание: Родители Хелен разведены, и поэтому самое заветное её желание — воссоединение семьи. Однажды, получив весьма необычную травму, девушка вынуждена обратиться за помощью к врачу. Случай её настолько необычен, что героиня быстро становится настоящей сенсацией для всей больницы. Понимая, что это великолепный шанс объединить родителей у своей постели, Хелен уговаривает медбрата Робина помочь ей с исполнением хитроумного плана…

    Сэмпл: http://multi-up.com
    Качество видео: HDRip
    Формат видео: AVI
    Видео: Xvid 720x304 24.00fps 1771Kbps
    Аудио 1: Dolby AC3 48000Hz 6 Audio Channel 448Kbps [русский]
    Аудио 2: Dolby AC3 48000Hz 6 Audio Channel 448Kbps [немецкий]
    Формат субтитров: softsub (SRT)

    MediaInfo

    General
    Complete name : D:\TORRENTS\Запретная территория\Запретная территория.avi
    Format : AVI
    Format/Info : Audio Video Interleave
    File size : 2.04 GiB
    Duration : 1h 49mn
    Overall bit rate : 2 681 Kbps
    Video
    ID : 0
    Format : MPEG-4 Visual
    Format profile : Advanced Simple@L5
    Format settings, BVOP : 2
    Format settings, QPel : No
    Format settings, GMC : No warppoints
    Format settings, Matrix : Default (H.263)
    Codec ID : XVID
    Codec ID/Hint : XviD
    Duration : 1h 49mn
    Bit rate : 1 771 Kbps
    Width : 720 pixels
    Height : 304 pixels
    Display aspect ratio : 2.35:1
    Frame rate : 24.000 fps
    Color space : YUV
    Chroma subsampling : 4:2:0
    Bit depth : 8 bits
    Scan type : Progressive
    Compression mode : Lossy
    Bits/(Pixel*Frame) : 0.337
    Stream size : 1.35 GiB (66%)
    Writing library : XviD 1.2.1 (UTC 2008-12-04)
    Audio #1
    ID : 1
    Format : AC-3
    Format/Info : Audio Coding 3
    Mode extension : CM (complete main)
    Format settings, Endianness : Big
    Codec ID : 2000
    Duration : 1h 49mn
    Source duration : 1h 49mn
    Bit rate mode : Constant
    Bit rate : 448 Kbps
    Channel(s) : 6 channels
    Channel positions : Front: L C R, Side: L R, LFE
    Sampling rate : 48.0 KHz
    Bit depth : 16 bits
    Compression mode : Lossy
    Stream size : 350 MiB (17%)
    Alignment : Aligned on interleaves
    Interleave, duration : 42 ms (1.00 video frame)
    Audio #2
    ID : 2
    Format : AC-3
    Format/Info : Audio Coding 3
    Mode extension : CM (complete main)
    Format settings, Endianness : Big
    Codec ID : 2000
    Duration : 1h 49mn
    Source duration : 1h 49mn
    Bit rate mode : Constant
    Bit rate : 448 Kbps
    Channel(s) : 6 channels
    Channel positions : Front: L C R, Side: L R, LFE
    Sampling rate : 48.0 KHz
    Bit depth : 16 bits
    Compression mode : Lossy
    Stream size : 350 MiB (17%)
    Alignment : Aligned on interleaves
    Interleave, duration : 42 ms (1.00 video frame)

    Скриншот c названием фильма

    Скриншоты

    Скачать .torrent

    Скачать торрент-файл бесплатно и на максимальной скорости!

    Как скачивать? · Что такое торрент? · Рейтинг и ограничения

    !ВНИМАНИЕ!
    Сайт не распространяет и не хранит электронные версии произведений, а занимается лишь лишь предоставлением доступа к создаваемому пользователями каталогу ссылок на торрент-файлы, которые содержат только списки хеш-сумм, убедительная просьба с жалобами обращаться напрямую к пользователю. Файлы для обмена на трекере предоставлены пользователями сайта, и администрация не несёт ответственности за их содержание. Просьба не заливать файлы, защищенные авторскими правами, а также файлы нелегального содержания!


    _________________
    [Профиль] [ЛС]
    Показать сообщения:    
    Ответить на тему

    Текущее время: Сегодня, в 09:00

    Часовой пояс: GMT + 2



    Вы не можете начинать темы
    Вы не можете отвечать на сообщения
    Вы не можете редактировать свои сообщения
    Вы не можете удалять свои сообщения
    Вы не можете голосовать в опросах
    Вы не можете прикреплять файлы к сообщениям
    Вы не можете скачивать файлы