Register  ·  Log in
Forgot password?

  • Волшебная страна чудес / Magic Wonderland (Фенг Ванг / Feng Wang) [2014 г., Китай, Мультфильм, фэнтези, приключения, WEB-DLRip] Dub

    Reply to topic
    Author Message


    Post 23-Mar-2015 02:19



    Волшебная страна чудес / Magic Wonderland
    Год выпуска: 2014
    Страна: Китай
    Жанр: Мультфильм, фэнтези, приключения
    Продолжительность: ~ 01:31:20
    Перевод: Профессиональный (дублированный)
    Русские субтитры: нет
    Режиссер: Цзяньрон Ву, Леон Динг
    Описание: В небольшой рыбацкой деревушке живет девочка по имени Океана. Она умеет разговаривать с морскими обитателями. Девочка не знает, откуда у нее этот дар и ничего не помнит о своем прошлом. Но однажды к ней является фея волны, которая открывает ей тайну. На самом деле Океана — дочь морской волшебницы, на которую злой дух наложил свои чары. Чтобы спасти маму, юная волшебница должна отправиться в непростое путешествие в далекую Страну Чудес. В пути ее ждет встреча с пиратами, злым колдуном и даже могущественным духом огня, но когда рядом с тобой верные друзья, ничего не страшно.- |-Качество видео: WEB-DLRip (Сэмпл)
    Формат видео: AVI
    Видео: 720x320 (2.25:1), 25 fps, XviD ~1032 kbps, 0.18 bit/pixel
    Аудио: 48 kHz, MP3, 2/0 (L,R) ch, ~128 kbps Русский


    GeneralComplete name : Magic Wonderlan.2014_745_Olu6ka.aviFormat : AVIFormat/Info : Audio Video InterleaveFile size : 746 MiBDuration : 1h 29mnOverall bit rate : 1 170 KbpsWriting application : VirtualDubModRus (build 2542/release)Writing library : VirtualDubMod build 2542/release
    VideoID : 0Format : MPEG-4 VisualFormat profile : Advanced Simple@L5Format settings, BVOP : 1Format settings, QPel : NoFormat settings, GMC : No warppointsFormat settings, Matrix : CustomCodec ID : XVIDCodec ID/Hint : XviDDuration : 1h 29mnBit rate : 1 032 KbpsWidth : 720 pixelsHeight : 320 pixelsDisplay aspect ratio : 2.25:1Frame rate : 25.000 fpsColor space : YUVChroma subsampling : 4:2:0Bit depth : 8 bitsScan type : ProgressiveCompression mode : LossyBits/(Pixel*Frame) : 0.179Stream size : 658 MiB (88%)Writing library : XviD 73
    AudioID : 1Format : MPEG AudioFormat version : Version 1Format profile : Layer 3Mode : Joint stereoMode extension : MS StereoCodec ID : 55Codec ID/Hint : MP3Duration : 1h 29mnBit rate mode : ConstantBit rate : 128 KbpsChannel count : 2 channelsSampling rate : 48.0 KHzCompression mode : LossyStream size : 81.6 MiB (11%)Alignment : Split accross interleavesInterleave, duration : 40 ms (1.00 video frame)Interleave, preload duration : 500 ms


    Спасибо -Azureus- за исходник!
    Download .torrent

    Download free and at maximum speed!

    How to Download? · What is a torrent? · Ratings and Limitations

    The site does not extend and does not store electronic(digital) versions of products, and only gives access to a reference catalogue created by users on torrent-files which contain only lists of the hash-sums, the earnest entreaty, with complaints(abuse) to access directly to the user. Files for an exchange on tracker are given by users of a site, and the administration does not bear the responsibility for their maintenance. The request to not fill in the files protected by copyrights, and also files of the illegal maintenance!

    [Profile] [PM]
    Display posts from previous:    
    Reply to topic

    The time now is: Today 12:07

    All times are GMT + 3 Hours

    You cannot post new topics in this forum
    You cannot reply to topics in this forum
    You cannot edit your posts in this forum
    You cannot delete your posts in this forum
    You cannot vote in polls in this forum
    You cannot attach files in this forum
    You cannot download files in this forum