BitTorrentTracker PerecTracker.org
BitTorrentTracker PerecTracker.org
    
Регистрация  ·  Вход
 
 · 
Забыли пароль?

  • Джордж из джунглей / George of the Jungle (Сэм Уайзман / Sam Weisman) [1997, США, комедия, приключения, семейный, WEB-DL 720p] 3x MVO + VO + Original Eng + Sub Eng

    Ответить на тему
     
    Автор Сообщение

    Flirldrerve

    Создавать темы 22-Мар-2015 21:07

           

    [Цитировать]

    Джордж из джунглей / George of the Jungle«Он недавно спустился с дерева... на улицы Сан-Франциско»-Год выпуска: 1997
    Страна: США
    Жанр: комедия, приключения, семейный
    Продолжительность: 01:31:44
    Перевод 1: Профессиональный (многоголосый закадровый) - СТС/ОРТ
    Перевод 2: Профессиональный (многоголосый закадровый) - Позитив
    Перевод 3: Профессиональный (многоголосый закадровый) - Видеосервис
    Перевод 4: Одноголосый закадровый
    Субтитры: английские
    Оригинальная аудиодорожка: английская-Режиссер: Сэм Уайзман
    Продюсер: Джон Эвнет, Дэвид Хоберман, Джордан Кернер
    Сценарий: Дэна Олсен, Одри Уэллс, Джей Уорд- -В ролях: Брендан Фрейзер, Лесли Манн, Томас Хейден Чёрч, Ричард Раундтри, Грегг Краттуэлл, Абрахам Бенруби, Холланд Тейлор, Келли Миллер, Джон Беннет Перри, Джон Клиз-Описание:
    Джордж вырос в самом сердце африканских джунглей. Среди горилл. Они научили своего воспитанника прыгать по деревьям… но не показали, как приземляться. Его лучшие друзья — дикие животные превращаются в домашних. Слон — в сторожевую собаку, лев — в ленивого кота. Даже обезьяна с перепугу начала разговаривать.
    Джордж наслаждается своей привольной жизнью, пока не встречает красавицу Урсулу, которая не только очаровывает его, но и увозит в Сан — Франциско. Большому городу не хватало только… короля джунглей.-Качество: WEB-DL 720p SAMPLE
    Исходник: Rus iTunes
    Формат: MKV
    Видео: MPEG4 Video (H264) 1280x688 23.976fps ~4000Kbps
    Аудио #1: 48 kHz, AAC, 2.0, ~160.00 kbps avg |Многоголосый закадровый - iTunes, СТС/ОРТ|
    Аудио #2: 48 kHz, AC3, 5.1, ~448.00 kbps avg |Многоголосый закадровый - Позитив|
    Аудио #3: 48 kHz, AC3, 2.0, ~192.00 kbps avg |Многоголосый закадровый - Видеосервис|
    Аудио #4: 48 kHz, AC3, 5.1, ~384.00 kbps avg |Одноголосый закадровый|
    Аудио #5: 48 kHz, AC3, 5.1, ~384.00 kbps avg |Оригинал, iTunes|
    Субтитры: SoftSub (SRT)
    Главы: 19 шт. (неподписанные)
    -

    MediaInfo

    Общее
    Уникальный идентификатор                 : 170177846759219914069611424238714243532 (0x80070FA3E37ECDD79183348213D449CC)
    Полное имя                               : D:\Видео\HD\Джордж из джунглей [1997, WEB-DL 720p].mkv
    Формат                                   : Matroska
    Версия формата                           : Version 4 / Version 2
    Размер файла                             : 3,55 Гбайт
    Продолжительность                        : 1 ч. 31 м.
    Общий поток                              : 5532 Кбит/сек
    Название фильма                          : Release by spartanec163
    Дата кодирования                         : UTC 2015-03-22 14:25:23
    Программа кодирования                    : mkvmerge v7.4.0 ('Circles') 64bit built on Dec 12 2014 12:19:56
    Библиотека кодирования                   : libebml v1.3.0 + libmatroska v1.4.1
    DURATION                                 : 01:31:05.693000000
    NUMBER_OF_FRAMES                         : 1212
    NUMBER_OF_BYTES                          : 44784
    _STATISTICS_WRITING_APP                  : mkvmerge v7.4.0 ('Circles') 64bit built on Dec 12 2014 12:19:56
    _STATISTICS_WRITING_DATE_UTC             : 2015-03-22 14:25:23
    _STATISTICS_TAGS                         : BPS DURATION NUMBER_OF_FRAMES NUMBER_OF_BYTES
    Видео
    Идентификатор                            : 1
    Формат                                   : AVC
    Формат/Информация                        : Advanced Video Codec
    Профиль формата                          : High@L3.1
    Параметр CABAC формата                   : Нет
    Параметр ReFrames формата                : 2 кадра
    Параметр GOP формата                     : N=1
    Идентификатор кодека                     : V_MPEG4/ISO/AVC
    Продолжительность                        : 1 ч. 31 м.
    Ширина                                   : 1280 пикселей
    Высота                                   : 688 пикселей
    Соотношение сторон                       : 1,85:1
    Режим частоты кадров                     : Постоянный
    Частота кадров                           : 23,976 кадра/сек
    Цветовое пространство                    : YUV
    Субдискретизация насыщенности            : 4:2:0
    Битовая глубина                          : 8 бит
    Тип развёртки                            : Прогрессивная
    Заголовок                                : WEB-DL 720p (Rus iTunes)
    Язык                                     : Russian
    Default                                  : Да
    Forced                                   : Нет
    Основные цвета                           : BT.709
    Характеристики трансфера                 : BT.709
    Коэффициенты матрицы                     : BT.709
    colour_range                             : Limited
    Аудио #1
    Идентификатор                            : 2
    Формат                                   : AAC
    Формат/Информация                        : Advanced Audio Codec
    Профиль формата                          : LC
    Идентификатор кодека                     : A_AAC
    Продолжительность                        : 1 ч. 31 м.
    Каналы                                   : 2 канала
    Расположение каналов                     : Front: L R
    Частота                                  : 48,0 КГц
    Метод сжатия                             : С потерями
    Заголовок                                : AAC 2.0 160Kbps (Профессиональный многоголосый - iTunes, СТС)
    Язык                                     : Russian
    Default                                  : Да
    Forced                                   : Нет
    Аудио #2
    Идентификатор                            : 3
    Формат                                   : AC-3
    Формат/Информация                        : Audio Coding 3
    Расширение режима                        : CM (complete main)
    Параметр Endianness формата              : Big
    Идентификатор кодека                     : A_AC3
    Продолжительность                        : 1 ч. 31 м.
    Вид битрейта                             : Постоянный
    Битрейт                                  : 448 Кбит/сек
    Каналы                                   : 6 каналов
    Расположение каналов                     : Front: L C R, Side: L R, LFE
    Частота                                  : 48,0 КГц
    Битовая глубина                          : 16 бит
    Метод сжатия                             : С потерями
    Размер потока                            : 294 Мбайт (8%)
    Заголовок                                : AC3 5.1 448Kbps (Профессиональный, многоголосый - Позитив)
    Язык                                     : Russian
    Default                                  : Нет
    Forced                                   : Нет
    Аудио #3
    Идентификатор                            : 4
    Формат                                   : AC-3
    Формат/Информация                        : Audio Coding 3
    Расширение режима                        : CM (complete main)
    Параметр Endianness формата              : Big
    Идентификатор кодека                     : A_AC3
    Продолжительность                        : 1 ч. 31 м.
    Вид битрейта                             : Постоянный
    Битрейт                                  : 192 Кбит/сек
    Каналы                                   : 2 канала
    Расположение каналов                     : Front: L R
    Частота                                  : 48,0 КГц
    Битовая глубина                          : 16 бит
    Метод сжатия                             : С потерями
    Размер потока                            : 126 Мбайт (3%)
    Заголовок                                : AC3 2.0 192Kbps (Профессиональный, многоголосый - Видеосервис)
    Язык                                     : Russian
    Default                                  : Нет
    Forced                                   : Нет
    Аудио #4
    Идентификатор                            : 5
    Формат                                   : AC-3
    Формат/Информация                        : Audio Coding 3
    Расширение режима                        : CM (complete main)
    Параметр Endianness формата              : Big
    Идентификатор кодека                     : A_AC3
    Продолжительность                        : 1 ч. 31 м.
    Вид битрейта                             : Постоянный
    Битрейт                                  : 384 Кбит/сек
    Каналы                                   : 6 каналов
    Расположение каналов                     : Front: L C R, Side: L R, LFE
    Частота                                  : 48,0 КГц
    Битовая глубина                          : 16 бит
    Метод сжатия                             : С потерями
    Размер потока                            : 252 Мбайт (7%)
    Заголовок                                : AC3 5.1 384Kbps (Одноголосый закадровый)
    Язык                                     : Russian
    Default                                  : Нет
    Forced                                   : Нет
    Аудио #5
    Идентификатор                            : 6
    Формат                                   : AC-3
    Формат/Информация                        : Audio Coding 3
    Расширение режима                        : CM (complete main)
    Параметр Endianness формата              : Big
    Идентификатор кодека                     : A_AC3
    Продолжительность                        : 1 ч. 31 м.
    Вид битрейта                             : Постоянный
    Битрейт                                  : 384 Кбит/сек
    Каналы                                   : 6 каналов
    Расположение каналов                     : Front: L C R, Side: L R, LFE
    Частота                                  : 48,0 КГц
    Битовая глубина                          : 16 бит
    Метод сжатия                             : С потерями
    Размер потока                            : 252 Мбайт (7%)
    Заголовок                                : AC3 5.1 384Kbps (оригинал)
    Язык                                     : English
    Default                                  : Нет
    Forced                                   : Нет
    Текст
    Идентификатор                            : 7
    Формат                                   : UTF-8
    Идентификатор кодека                     : S_TEXT/UTF8
    Идентификатор кодека/Информация          : UTF-8 Plain Text
    Язык                                     : English
    Default                                  : Нет
    Forced                                   : Нет
    Меню
    00:00:00.000                             : en:1
    00:00:26.000                             : en:2
    00:05:00.000                             : en:3
    00:11:06.000                             : en:4
    00:20:04.000                             : en:5
    00:23:24.000                             : en:6
    00:28:39.000                             : en:7
    00:29:47.000                             : en:8
    00:34:27.000                             : en:9
    00:43:11.000                             : en:10
    00:45:29.000                             : en:11
    00:50:03.000                             : en:12
    00:51:29.000                             : en:13
    00:55:19.000                             : en:14
    00:56:55.000                             : en:15
    01:05:04.000                             : en:16
    01:15:46.000                             : en:17
    01:22:13.000                             : en:18
    01:25:07.000                             : en:19

    -

    Скриншоты


    -
    Скачать .torrent

    Скачать торрент-файл бесплатно и на максимальной скорости!

    Как скачивать? · Что такое торрент? · Рейтинг и ограничения

    !ВНИМАНИЕ!
    Сайт не распространяет и не хранит электронные версии произведений, а занимается лишь лишь предоставлением доступа к создаваемому пользователями каталогу ссылок на торрент-файлы, которые содержат только списки хеш-сумм, убедительная просьба с жалобами обращаться напрямую к пользователю. Файлы для обмена на трекере предоставлены пользователями сайта, и администрация не несёт ответственности за их содержание. Просьба не заливать файлы, защищенные авторскими правами, а также файлы нелегального содержания!


    _________________
    [Профиль] [ЛС]
    Показать сообщения:    
    Ответить на тему

    Текущее время: Сегодня, в 19:59

    Часовой пояс: GMT + 2



    Вы не можете начинать темы
    Вы не можете отвечать на сообщения
    Вы не можете редактировать свои сообщения
    Вы не можете удалять свои сообщения
    Вы не можете голосовать в опросах
    Вы не можете прикреплять файлы к сообщениям
    Вы не можете скачивать файлы