Register  ·  Log in
Forgot password?

  • Золотой Гусь / Die Goldene Gans (Карстен Фибелер / Carsten Fiebeler) [2013, Германия, сказка, детский, семейный, DVB] DVO (Игмар)

    Reply to topic
    Author Message


    Post 22-Mar-2015 22:07



    Золотой Гусь / Die Goldene Gans-Страна: Германия
    Жанр: сказка, детский, семейный
    Год выпуска: 2013
    Продолжительность: 01:27:20
    Перевод: Профессиональный (двухголосый закадровый) - Компания "Игмар" / Канал "Gulli"
    Cубтитры: нет-Режиссер: Карстен Фибелер / Carsten Fiebeler
    В ролях: Джереми Мокридж, Йелла Хаазе, Инго Науйокс, Ульрике Крумбигель, Арндт Шверинг-Зонрей, Роланд Шрегльманн, Анна Бёттхер, Тереза Вайсбах, Тилль Флориан Байербах, Эдин Хасанович, Торстен Мертен, Хилмар Эйхорн, Адольфо Ассор...- | Релиз: -Описание: Экранизация по мотивам сказки братьев Гримм.
    Простачок Тилль получает от незнакомца в знак благодарности чудесный подарок - золотого гуся, и решает отнести его печальной принцессе, чтобы развеселить её. Но до замка принцессы путь не близкий, а у окружающих интерес к гусю не такой бескорыстный как у Тилля. Однако у гуся, кроме цвета, есть ещё одно чудесное свойство...-Семпл:Качество видео: DVB (Канал "Gulli")
    Формат видео: MPG
    Видео: 720x576 (4:3) @ 768x576, 25.000 fps, MPEG-2 Video, ~2225 Kbps, 0.215 bits/pixel
    Аудио: Русский, 48.0 KHz, MPEG-1 Audio layer 2, 2 ch, 192 Kbps


    GeneralComplete name : Die Goldene Gans 2013 Gulli DVO Igmar.mpgFormat : MPEG-PSFile size : 1.50 GiBDuration : 1h 27mnOverall bit rate mode : VariableOverall bit rate : 2 466 Kbps
    VideoID : 224 (0xE0)Format : MPEG VideoFormat version : Version 2Format profile : Main@MainFormat settings, BVOP : YesFormat settings, Matrix : CustomFormat settings, GOP : VariableFormat settings, picture structure : FrameDuration : 1h 27mnBit rate mode : VariableBit rate : 2 225 KbpsMaximum bit rate : 15.0 MbpsWidth : 720 pixelsHeight : 576 pixelsDisplay aspect ratio : 4:3Frame rate : 25.000 fpsStandard : PALColor space : YUVChroma subsampling : 4:2:0Bit depth : 8 bitsScan type : InterlacedScan order : Top Field FirstCompression mode : LossyBits/(Pixel*Frame) : 0.215Time code of first frame : 00:00:00:00Time code source : Group of pictures headerGOP, Open/Closed : OpenStream size : 1.36 GiB (90%)GOP, Open/Closed of first frame : Closed
    AudioID : 192 (0xC0)Format : MPEG AudioFormat version : Version 1Format profile : Layer 2Duration : 1h 27mnBit rate mode : ConstantBit rate : 192 KbpsChannel(s) : 2 channelsSampling rate : 48.0 KHzCompression mode : LossyStream size : 120 MiB (8%)


    Download .torrent

    Download free and at maximum speed!

    How to Download? · What is a torrent? · Ratings and Limitations

    The site does not extend and does not store electronic(digital) versions of products, and only gives access to a reference catalogue created by users on torrent-files which contain only lists of the hash-sums, the earnest entreaty, with complaints(abuse) to access directly to the user. Files for an exchange on tracker are given by users of a site, and the administration does not bear the responsibility for their maintenance. The request to not fill in the files protected by copyrights, and also files of the illegal maintenance!

    [Profile] [PM]
    Display posts from previous:    
    Reply to topic

    The time now is: Today 21:52

    All times are GMT + 3 Hours

    You cannot post new topics in this forum
    You cannot reply to topics in this forum
    You cannot edit your posts in this forum
    You cannot delete your posts in this forum
    You cannot vote in polls in this forum
    You cannot attach files in this forum
    You cannot download files in this forum