BitTorrentTracker PerecTracker.org
BitTorrentTracker PerecTracker.org
    
Регистрация  ·  Вход
 
 · 
Забыли пароль?

  • Золотой Гусь / Die Goldene Gans (Карстен Фибелер / Carsten Fiebeler) [2013, Германия, сказка, детский, семейный, DVB] DVO (Игмар)

    Ответить на тему
     
    Автор Сообщение

    Light

    Создавать темы 22-Мар-2015 21:07

           

    [Цитировать]

    Золотой Гусь / Die Goldene Gans-Страна: Германия
    Жанр: сказка, детский, семейный
    Год выпуска: 2013
    Продолжительность: 01:27:20
    Перевод: Профессиональный (двухголосый закадровый) - Компания "Игмар" / Канал "Gulli"
    Cубтитры: нет-Режиссер: Карстен Фибелер / Carsten Fiebeler
    В ролях: Джереми Мокридж, Йелла Хаазе, Инго Науйокс, Ульрике Крумбигель, Арндт Шверинг-Зонрей, Роланд Шрегльманн, Анна Бёттхер, Тереза Вайсбах, Тилль Флориан Байербах, Эдин Хасанович, Торстен Мертен, Хилмар Эйхорн, Адольфо Ассор...- | Релиз: -Описание: Экранизация по мотивам сказки братьев Гримм.
    Простачок Тилль получает от незнакомца в знак благодарности чудесный подарок - золотого гуся, и решает отнести его печальной принцессе, чтобы развеселить её. Но до замка принцессы путь не близкий, а у окружающих интерес к гусю не такой бескорыстный как у Тилля. Однако у гуся, кроме цвета, есть ещё одно чудесное свойство...-Семпл: http://sendfile.su/1099288-Качество видео: DVB (Канал "Gulli")
    Формат видео: MPG
    Видео: 720x576 (4:3) @ 768x576, 25.000 fps, MPEG-2 Video, ~2225 Kbps, 0.215 bits/pixel
    Аудио: Русский, 48.0 KHz, MPEG-1 Audio layer 2, 2 ch, 192 Kbps

    MediaInfo

    GeneralComplete name : Die Goldene Gans 2013 Gulli DVO Igmar.mpgFormat : MPEG-PSFile size : 1.50 GiBDuration : 1h 27mnOverall bit rate mode : VariableOverall bit rate : 2 466 Kbps
    VideoID : 224 (0xE0)Format : MPEG VideoFormat version : Version 2Format profile : Main@MainFormat settings, BVOP : YesFormat settings, Matrix : CustomFormat settings, GOP : VariableFormat settings, picture structure : FrameDuration : 1h 27mnBit rate mode : VariableBit rate : 2 225 KbpsMaximum bit rate : 15.0 MbpsWidth : 720 pixelsHeight : 576 pixelsDisplay aspect ratio : 4:3Frame rate : 25.000 fpsStandard : PALColor space : YUVChroma subsampling : 4:2:0Bit depth : 8 bitsScan type : InterlacedScan order : Top Field FirstCompression mode : LossyBits/(Pixel*Frame) : 0.215Time code of first frame : 00:00:00:00Time code source : Group of pictures headerGOP, Open/Closed : OpenStream size : 1.36 GiB (90%)GOP, Open/Closed of first frame : Closed
    AudioID : 192 (0xC0)Format : MPEG AudioFormat version : Version 1Format profile : Layer 2Duration : 1h 27mnBit rate mode : ConstantBit rate : 192 KbpsChannel(s) : 2 channelsSampling rate : 48.0 KHzCompression mode : LossyStream size : 120 MiB (8%)

    Скриншоты

    Скачать .torrent

    Скачать торрент-файл бесплатно и на максимальной скорости!

    Как скачивать? · Что такое торрент? · Рейтинг и ограничения

    !ВНИМАНИЕ!
    Сайт не распространяет и не хранит электронные версии произведений, а занимается лишь лишь предоставлением доступа к создаваемому пользователями каталогу ссылок на торрент-файлы, которые содержат только списки хеш-сумм, убедительная просьба с жалобами обращаться напрямую к пользователю. Файлы для обмена на трекере предоставлены пользователями сайта, и администрация не несёт ответственности за их содержание. Просьба не заливать файлы, защищенные авторскими правами, а также файлы нелегального содержания!


    _________________
    [Профиль] [ЛС]
    Показать сообщения:    
    Ответить на тему

    Текущее время: Сегодня, в 04:19

    Часовой пояс: GMT + 2



    Вы не можете начинать темы
    Вы не можете отвечать на сообщения
    Вы не можете редактировать свои сообщения
    Вы не можете удалять свои сообщения
    Вы не можете голосовать в опросах
    Вы не можете прикреплять файлы к сообщениям
    Вы не можете скачивать файлы