BitTorrentTracker PerecTracker.org
BitTorrentTracker PerecTracker.org
    
Регистрация  ·  Вход
 
 · 
Забыли пароль?

  • Ночная красавица / The Forbidden Girl (Тилль Хастрайтер / Till Hastreiter) [2013, Германия, триллер, детектив, HDTV 1080i] DVO

    Ответить на тему
     
    Автор Сообщение

    Flirldrerve

    Создавать темы 22-Мар-2015 21:07

           

    [Цитировать]

    Ночная красавица / The Forbidden Girl
    Страна: Германия
    Студия: European Nation Pictures
    Жанр: Триллер, детектив
    Год выпуска: 2013
    Продолжительность: 01:41:12
    Перевод: Профессиональный (двухголосый закадровый)
    Cубтитры: нет
    Оригинальная аудиодорожка: нет
    Режиссер: Тилль Хастрайтер / Till Hastreiter
    В ролях: Питер Гадиот, Ютта-Мерле Бёрнсен, Клаус Тангэ, Жанетт Хайн, Марк Бишофф, Роджер Теб, Джесси Инман, Манон Кайл, Йорг Винсент Малотки, Тадэуш Мейлингер
    Описание: Молодой человек по имени Тоби при странных и трагических обстоятельствах теряет свою возлюбленную Эсму. Он уверен, что причиной ее смерти стало появление некоего дьявольского существа. Произошедшее так его шокирует, что он попадает в психиатрическую клинику. Позже, когда Тоби выходит оттуда, ему предлагают работу в загородном поместье у одной старой женщины. Сама женщина очень слаба, поэтому всеми ее делами заведует дворецкий. Эта парочка выглядит несколько пугающей, но условия работы выгодные и Тоби соглашается. Как потом выясняется, в доме есть еще один жилец — молодая девушка, страдающая редкой болезнью — аллергией на дневной свет. Она заперта в специальной комнате. Что-то в ней напоминает ему об Эсме. Но кто же на самом деле эти люди к которым он попал?
    Сэмпл: http://multi-up.com/1039511
    Тип релиза: HDTV 1080i
    Контейнер: TS
    Видео: AVC, 1920x1080, (16:9), 25 fps, 7.7 Mbps
    Аудио: Русский, AC3, 48 kHz, 6 ch, 448 kbps

    MediaInfo

    General
    ID : 1 (0x1)
    Complete name : D:\Ночная красавица_2013_HDTV 1080i_RU.ts
    Format : MPEG-TS
    File size : 6.07 GiB
    Duration : 1h 41mn
    Overall bit rate mode : Variable
    Overall bit rate : 8 603 Kbps
    Video
    ID : 321 (0x141)
    Menu ID : 12101 (0x2F45)
    Format : AVC
    Format/Info : Advanced Video Codec
    Format profile : High@L4.0
    Format settings, CABAC : Yes
    Format settings, ReFrames : 4 frames
    Codec ID : 27
    Duration : 1h 41mn
    Bit rate : 7 725 Kbps
    Width : 1 920 pixels
    Height : 1 080 pixels
    Display aspect ratio : 16:9
    Frame rate : 25.000 fps
    Standard : Component
    Color space : YUV
    Chroma subsampling : 4:2:0
    Bit depth : 8 bits
    Scan type : Interlaced
    Scan order : Top Field First
    Bits/(Pixel*Frame) : 0.149
    Stream size : 5.45 GiB (90%)
    Color primaries : BT.709
    Transfer characteristics : BT.709
    Matrix coefficients : BT.709
    Color range : Limited
    Audio
    ID : 401 (0x191)
    Menu ID : 12101 (0x2F45)
    Format : AC-3
    Format/Info : Audio Coding 3
    Mode extension : CM (complete main)
    Format settings, Endianness : Big
    Codec ID : 6
    Duration : 1h 41mn
    Bit rate mode : Constant
    Bit rate : 448 Kbps
    Channel(s) : 6 channels
    Channel positions : Front: L C R, Side: L R, LFE
    Sampling rate : 48.0 KHz
    Bit depth : 16 bits
    Compression mode : Lossy
    Stream size : 324 MiB (5%)
    Language : Russian

    Скриншоты

    Скачать .torrent

    Скачать торрент-файл бесплатно и на максимальной скорости!

    Как скачивать? · Что такое торрент? · Рейтинг и ограничения

    !ВНИМАНИЕ!
    Сайт не распространяет и не хранит электронные версии произведений, а занимается лишь лишь предоставлением доступа к создаваемому пользователями каталогу ссылок на торрент-файлы, которые содержат только списки хеш-сумм, убедительная просьба с жалобами обращаться напрямую к пользователю. Файлы для обмена на трекере предоставлены пользователями сайта, и администрация не несёт ответственности за их содержание. Просьба не заливать файлы, защищенные авторскими правами, а также файлы нелегального содержания!


    _________________
    [Профиль] [ЛС]
    Показать сообщения:    
    Ответить на тему

    Текущее время: Сегодня, в 18:07

    Часовой пояс: GMT + 2



    Вы не можете начинать темы
    Вы не можете отвечать на сообщения
    Вы не можете редактировать свои сообщения
    Вы не можете удалять свои сообщения
    Вы не можете голосовать в опросах
    Вы не можете прикреплять файлы к сообщениям
    Вы не можете скачивать файлы