BitTorrentTracker PerecTracker.org
BitTorrentTracker PerecTracker.org
    
Регистрация  ·  Вход
 
 · 
Забыли пароль?

  • Путешествие Гектора в поисках счастья / Hector and the Search for Happiness (Питер Челсом / Peter Chelsom) [2014, Великобритания, Германия, Канада, ЮАР, драма, комедия, приключения, BDRip-AVC] Dub + Sub Ger + Original Eng

    Ответить на тему
     
    Автор Сообщение

    Light

    Создавать темы 22-Мар-2015 21:07

           

    [Цитировать]

    Путешествие Гектора в поисках счастья / Hector and the Search for Happiness
    «Everyone wants to find it»
    Страна: Великобритания, Германия, Канада, ЮАР
    Жанр: Драма, комедия, приключения
    Год выпуска: 2014
    Продолжительность: 01:59:35
    Перевод: Профессиональный (дублированный)
    Cубтитры: Немецкие
    Оригинальная аудиодорожка: английский--Режиссер: Питер Челсом / Peter Chelsom--В ролях: Саймон Пегг, Тони Коллетт, Розамунд Пайк, Стеллан Скарсгард, Жан Рено, Кристофер Пламмер, Трейси Энн Оберман, Вероника Феррес, Барри Атсма, Минг Жао...--Описание: Гектор — немного эксцентричный, но ужасно обаятельный лондонский психиатр — пребывает в состоянии кризиса, вызванного тем, что его пациенты не становятся счастливее, несмотря на все его усилия. И однажды Гектор решается самолично отправиться в путешествие по всему свету, чтобы узнать, существует ли счастье вообще и, что еще важнее, существует ли оно для него самого.--Доп. информация: Kinopoisk | IMDB | Sample |--Тип релиза: BDRip-AVC
    Контейнер: MKV
    Видео v: MPEG-4 AVC, 1024x426, 2 700 kbps, 24.000 fps, 0.258 bit/pixel.
    Аудио 1: 48 kHz, AC3, 3/2 (L,C,R,l,r) + LFE ch, 384 kbps avg
    Аудио 2: 48 kHz, AC3, 3/2 (L,C,R,l,r) + LFE ch, 448 kbps avg
    Субтиты: softsub (SRT), полные
    MediInfo/x264

    x264

    x264 [info]: frame I:1513 Avg QP:16.16 size: 82539
    x264 [info]: frame P:36651 Avg QP:19.46 size: 26570
    x264 [info]: frame B:133824 Avg QP:20.89 size: 9832
    x264 [info]: consecutive B-frames: 2.3% 2.8% 7.5% 17.7% 17.1% 39.7% 5.5% 1.5% 1.4% 1.5% 0.8% 0.6% 0.5% 0.5% 0.6%
    x264 [info]: mb I I16..4: 5.2% 73.3% 21.5%
    x264 [info]: mb P I16..4: 0.4% 10.2% 1.4% P16..4: 30.3% 36.9% 15.2% 0.0% 0.0% skip: 5.5%
    x264 [info]: mb B I16..4: 0.0% 1.0% 0.1% B16..8: 35.5% 20.8% 4.7% direct: 6.4% skip:31.4% L0:44.0% L1:42.7% BI:13.3%
    x264 [info]: 8x8 transform intra:82.8% inter:57.1%
    x264 [info]: direct mvs spatial:98.6% temporal:1.4%
    x264 [info]: coded y,uvDC,uvAC intra: 92.8% 83.0% 61.5% inter: 33.5% 18.7% 6.5%
    x264 [info]: i16 v,h,dc,p: 41% 13% 11% 36%
    x264 [info]: i8 v,h,dc,ddl,ddr,vr,hd,vl,hu: 9% 7% 8% 10% 14% 13% 13% 12% 13%
    x264 [info]: i4 v,h,dc,ddl,ddr,vr,hd,vl,hu: 12% 8% 5% 9% 15% 15% 13% 11% 12%
    x264 [info]: i8c dc,h,v,p: 39% 24% 19% 18%
    x264 [info]: Weighted P-Frames: Y:9.2% UV:5.8%
    x264 [info]: ref P L0: 42.9% 10.8% 18.9% 6.8% 6.0% 4.1% 3.9% 2.1% 2.2% 1.9% 0.3% 0.0%
    x264 [info]: ref B L0: 67.5% 13.5% 7.1% 3.8% 2.7% 2.3% 1.9% 0.8% 0.3%
    x264 [info]: ref B L1: 91.0% 9.0%
    x264 [info]: kb/s:2695.45
    General
    Unique ID : 173440102890298962808259471524236517920 (0x827B59491529A449B3579F4262526220)
    Complete name : Hector and the Search for Happiness (2014).mkv
    Format : Matroska
    Format version : Version 4 / Version 2
    File size : 2.94 GiB
    Duration : 1h 59mn
    Overall bit rate : 3 530 Kbps
    Movie name : Путешествие Гектора в поисках счастья / Hector and the Search for Happiness (2014)
    Encoded date : UTC 2015-03-22 12:39:03
    Writing application : mkvmerge v7.7.0 ('Six Voices') 64bit built on Feb 28 2015 23:39:33
    Writing library : libebml v1.3.1 + libmatroska v1.4.2
    Attachements : cover.jpg
    DURATION : 01:50:12.941000000
    NUMBER_OF_FRAMES : 1182
    NUMBER_OF_BYTES : 44615
    _STATISTICS_WRITING_APP : mkvmerge v7.7.0 ('Six Voices') 64bit built on Feb 28 2015 23:39:33
    _STATISTICS_WRITING_DATE_UT : 2015-03-22 12:39:03
    _STATISTICS_TAGS : BPS DURATION NUMBER_OF_FRAMES NUMBER_OF_BYTES
    Video
    ID : 1
    Format : AVC
    Format/Info : Advanced Video Codec
    Format profile : High@L4.1
    Format settings, CABAC : Yes
    Format settings, ReFrames : 10 frames
    Codec ID : V_MPEG4/ISO/AVC
    Duration : 1h 59mn
    Bit rate : 2 700 Kbps
    Width : 1 024 pixels
    Height : 426 pixels
    Display aspect ratio : 2.40:1
    Frame rate mode : Constant
    Frame rate : 24.000 fps
    Color space : YUV
    Chroma subsampling : 4:2:0
    Bit depth : 8 bits
    Scan type : Progressive
    Bits/(Pixel*Frame) : 0.258
    Stream size : 2.19 GiB (74%)
    Writing library : x264 core 142 r2431+42 c69a006 tMod [8-bit@4:2:0 X86_64]
    Encoding settings : cabac=1 / ref=10 / deblock=1:-3:-3 / analyse=0x3:0x113 / me=umh / subme=11 / psy=1 / fade_compensate=0.00 / psy_rd=1.00:0.00 / mixed_ref=1 / me_range=32 / chroma_me=1 / trellis=2 / 8x8dct=1 / cqm=0 / deadzone=21,11 / fast_pskip=0 / chroma_qp_offset=-2 / threads=12 / lookahead_threads=3 / sliced_threads=0 / nr=0 / decimate=0 / interlaced=0 / bluray_compat=0 / constrained_intra=0 / fgo=0 / bframes=14 / b_pyramid=2 / b_adapt=2 / b_bias=0 / direct=3 / weightb=1 / open_gop=0 / weightp=2 / keyint=240 / keyint_min=24 / scenecut=40 / intra_refresh=0 / rc=2pass / mbtree=0 / bitrate=2700 / ratetol=1.0 / qcomp=0.60 / qpmin=0:0:0 / qpmax=69:69:69 / qpstep=4 / cplxblur=20.0 / qblur=0.5 / ip_ratio=1.40 / pb_ratio=1.30 / aq=4:0.80 / aq-sensitivity=10.00 / aq-factor=1.00:1.00:1.00 / aq2=0 / aq3=0
    Language : English
    Default : Yes
    Forced : No
    DURATION : 01:59:26.167000000
    NUMBER_OF_FRAMES : 171988
    NUMBER_OF_BYTES : 2414505564
    _STATISTICS_WRITING_APP : mkvmerge v7.7.0 ('Six Voices') 64bit built on Feb 28 2015 23:39:33
    _STATISTICS_WRITING_DATE_UT : 2015-03-22 12:39:03
    _STATISTICS_TAGS : BPS DURATION NUMBER_OF_FRAMES NUMBER_OF_BYTES
    Audio #1
    ID : 2
    Format : AC-3
    Format/Info : Audio Coding 3
    Mode extension : CM (complete main)
    Format settings, Endianness : Big
    Codec ID : A_AC3
    Duration : 1h 59mn
    Bit rate mode : Constant
    Bit rate : 384 Kbps
    Channel(s) : 6 channels
    Channel positions : Front: L C R, Side: L R, LFE
    Sampling rate : 48.0 KHz
    Bit depth : 16 bits
    Compression mode : Lossy
    Stream size : 328 MiB (11%)
    Title : Профессиональный (дублированный)
    Language : Russian
    Default : Yes
    Forced : No
    Audio #2
    ID : 3
    Format : AC-3
    Format/Info : Audio Coding 3
    Mode extension : CM (complete main)
    Format settings, Endianness : Big
    Codec ID : A_AC3
    Duration : 1h 59mn
    Bit rate mode : Constant
    Bit rate : 448 Kbps
    Channel(s) : 6 channels
    Channel positions : Front: L C R, Side: L R, LFE
    Sampling rate : 48.0 KHz
    Bit depth : 16 bits
    Compression mode : Lossy
    Stream size : 383 MiB (13%)
    Language : English
    Default : No
    Forced : No
    Text
    ID : 4
    Format : UTF-8
    Codec ID : S_TEXT/UTF8
    Codec ID/Info : UTF-8 Plain Text
    Language : German
    Default : No
    Forced : No
    Menu
    00:00:00.000 : en:Chapter 01
    00:10:17.000 : en:Chapter 02
    00:21:11.875 : en:Chapter 03
    00:30:11.125 : en:Chapter 04
    00:41:38.708 : en:Chapter 05
    00:51:01.250 : en:Chapter 06
    01:00:31.416 : en:Chapter 07
    01:11:59.583 : en:Chapter 08
    01:20:12.958 : en:Chapter 09
    01:30:33.333 : en:Chapter 10
    01:39:48.833 : en:Chapter 11
    01:54:13.041 : en:Chapter 12

    Скриншоты

    Скачать .torrent

    Скачать торрент-файл бесплатно и на максимальной скорости!

    Как скачивать? · Что такое торрент? · Рейтинг и ограничения

    !ВНИМАНИЕ!
    Сайт не распространяет и не хранит электронные версии произведений, а занимается лишь лишь предоставлением доступа к создаваемому пользователями каталогу ссылок на торрент-файлы, которые содержат только списки хеш-сумм, убедительная просьба с жалобами обращаться напрямую к пользователю. Файлы для обмена на трекере предоставлены пользователями сайта, и администрация не несёт ответственности за их содержание. Просьба не заливать файлы, защищенные авторскими правами, а также файлы нелегального содержания!


    _________________
    [Профиль] [ЛС]
    Показать сообщения:    
    Ответить на тему

    Текущее время: Сегодня, в 22:24

    Часовой пояс: GMT + 2



    Вы не можете начинать темы
    Вы не можете отвечать на сообщения
    Вы не можете редактировать свои сообщения
    Вы не можете удалять свои сообщения
    Вы не можете голосовать в опросах
    Вы не можете прикреплять файлы к сообщениям
    Вы не можете скачивать файлы