BitTorrentTracker PerecTracker.org
BitTorrentTracker PerecTracker.org
    
Регистрация  ·  Вход
 
 · 
Забыли пароль?

  • Крылатое Рождество / Krídla Vánoc (Карин Бабинска / Karin Babinska) [2013, Чехия, комедия, драма, HDTVRip 720p] VO (Kass) + Sub Eng + Original Cze

    Ответить на тему
     
    Автор Сообщение

    Flirldrerve

    Создавать темы 22-Мар-2015 16:55

           

    [Цитировать]

    Крылатое Рождество / Krídla Vánoc
    Страна: Чехия
    Студия: Cineart TV, Ceska televize
    Жанр: комедия, драма
    Год выпуска: 2013
    Продолжительность: 01:44:37
    Перевод: Одноголосый закадровый (Kass)
    Cубтитры: английские
    Оригинальная аудиодорожка: чешский
    Режиссер: Карин Бабинска / Karin Babinska
    В ролях: Рихард Крайчо / Richard Krajco, Вица Керекеш / Vica Kerekes, Якуб Прахарж / Jakub Prachar, Давид Новотный / David Novotny, Ванда Хибнерова / Vanda Hybnerova, Ленка Власакова / Lenka Vlasakova, Виктор Прейс / Viktor Preiss и др.
    Описание: Рождественская сказка, максимально приближенная к действительности.
    Четверо друзей-неудачников (в том числе женщина), осевших в мега-маркете, знают только одну радость: собраться после работы на крыше, как следует поддать и ненадолго избавиться от депрессии. Совершенно неожиданно им дается шанс исполнить по одному заветному желанию, и они загадывают: кто всерьез, кто в шутку – не думая о последствиях. А желания-то сбываются...

    Доп. информация:


    спасибо -
    http://perectracker.org/viewtopic.php?t=4879944
    Тип релиза: HDTVRip 720p | DON | sample
    Контейнер: MKV
    Видео: H.264/AVC, 1280x638, 2.006:1, 25.00fps, 5272 Kbps
    Аудио #1 RUS: DD 5.1, 48 kHz, 448 kbps
    Аудио #2 CZE: DD 5.1, 48 kHz, 448 kbps
    Формат субтитров: softsub (SRT)

    MediaInfo

    Complete name                            : Kridla.Vanoc.2013.720p.HDTV.x264.rus.cze.mkv
    Format                                   : Matroska
    Format version                           : Version 4 / Version 2
    File size                                : 4.60 GiB
    Duration                                 : 1h 44mn
    Overall bit rate                         : 6 293 Kbps
    Movie name                               : Křídla Vánoc (2013)
    Encoded date                             : UTC 2015-03-21 06:11:09
    Writing application                      : mkvmerge v7.6.0 ('Garden of Dreams') 64bit built on Feb  8 2015 13:04:34
    Writing library                          : libebml v1.3.1 + libmatroska v1.4.2
    DURATION                                 : 01:44:37.792000000
    NUMBER_OF_FRAMES                         : 196181
    NUMBER_OF_BYTES                          : 351556352
    _STATISTICS_WRITING_APP                  : mkvmerge v7.6.0 ('Garden of Dreams') 64bit built on Feb  8 2015 13:04:34
    _STATISTICS_WRITING_DATE_UTC             : 2015-03-21 06:11:09
    _STATISTICS_TAGS                         : BPS DURATION NUMBER_OF_FRAMES NUMBER_OF_BYTES
    Video
    ID                                       : 1
    Format                                   : AVC
    Format/Info                              : Advanced Video Codec
    Format profile                           : High@L4.1
    Format settings, CABAC                   : Yes
    Format settings, ReFrames                : 10 frames
    Codec ID                                 : V_MPEG4/ISO/AVC
    Duration                                 : 1h 44mn
    Bit rate                                 : 5 272 Kbps
    Width                                    : 1 280 pixels
    Height                                   : 638 pixels
    Display aspect ratio                     : 2.006
    Frame rate mode                          : Constant
    Frame rate                               : 25.000 fps
    Color space                              : YUV
    Chroma subsampling                       : 4:2:0
    Bit depth                                : 8 bits
    Scan type                                : Progressive
    Bits/(Pixel*Frame)                       : 0.258
    Stream size                              : 3.85 GiB (84%)
    Writing library                          : x264 core 142 r2431+42 c69a006 tMod [8-bit@all X86_64]
    Encoding settings                        : cabac=1 / ref=10 / deblock=1:-3:-3 / analyse=0x3:0x133 / me=tesa / subme=10 / psy=1 / fade_compensate=0.00 / psy_rd=1.05:0.00 / mixed_ref=1 / me_range=24 / chroma_me=1 / trellis=2 / 8x8dct=1 / cqm=0 / deadzone=21,11 / fast_pskip=0 / chroma_qp_offset=-2 / threads=12 / lookahead_threads=2 / sliced_threads=0 / nr=0 / decimate=0 / interlaced=0 / bluray_compat=0 / constrained_intra=0 / fgo=0 / bframes=8 / b_pyramid=2 / b_adapt=2 / b_bias=0 / direct=3 / weightb=1 / open_gop=0 / weightp=2 / keyint=250 / keyint_min=25 / scenecut=40 / intra_refresh=0 / rc_lookahead=60 / rc=crf / mbtree=0 / crf=16.0000 / qcomp=0.65 / qpmin=0:0:0 / qpmax=69:69:69 / qpstep=4 / vbv_maxrate=62500 / vbv_bufsize=78125 / crf_max=0.0 / nal_hrd=none / filler=0 / ip_ratio=1.40 / pb_ratio=1.30 / aq=4:0.80 / aq-sensitivity=10.00 / aq-factor=1.00:1.00:1.00 / aq2=0 / aq3=0
    Language                                 : Czech
    Default                                  : Yes
    Forced                                   : No
    Audio #1
    ID                                       : 2
    Format                                   : AC-3
    Format/Info                              : Audio Coding 3
    Mode extension                           : CM (complete main)
    Format settings, Endianness              : Big
    Codec ID                                 : A_AC3
    Duration                                 : 1h 44mn
    Bit rate mode                            : Constant
    Bit rate                                 : 448 Kbps
    Channel(s)                               : 6 channels
    Channel positions                        : Front: L C R, Side: L R, LFE
    Sampling rate                            : 48.0 KHz
    Bit depth                                : 16 bits
    Compression mode                         : Lossy
    Stream size                              : 335 MiB (7%)
    Title                                    : VO (Kass)
    Language                                 : Russian
    Default                                  : Yes
    Forced                                   : No
    Audio #2
    ID                                       : 3
    Format                                   : AC-3
    Format/Info                              : Audio Coding 3
    Mode extension                           : CM (complete main)
    Format settings, Endianness              : Big
    Codec ID                                 : A_AC3
    Duration                                 : 1h 44mn
    Bit rate mode                            : Constant
    Bit rate                                 : 448 Kbps
    Channel(s)                               : 6 channels
    Channel positions                        : Front: L C R, Side: L R, LFE
    Sampling rate                            : 48.0 KHz
    Bit depth                                : 16 bits
    Compression mode                         : Lossy
    Stream size                              : 335 MiB (7%)
    Language                                 : Czech
    Default                                  : No
    Forced                                   : No
    Text
    ID                                       : 4
    Format                                   : UTF-8
    Codec ID                                 : S_TEXT/UTF8
    Codec ID/Info                            : UTF-8 Plain Text
    Language                                 : English
    Default                                  : No
    Forced                                   : No

    Скриншоты

    Скачать .torrent

    Скачать торрент-файл бесплатно и на максимальной скорости!

    Как скачивать? · Что такое торрент? · Рейтинг и ограничения

    !ВНИМАНИЕ!
    Сайт не распространяет и не хранит электронные версии произведений, а занимается лишь лишь предоставлением доступа к создаваемому пользователями каталогу ссылок на торрент-файлы, которые содержат только списки хеш-сумм, убедительная просьба с жалобами обращаться напрямую к пользователю. Файлы для обмена на трекере предоставлены пользователями сайта, и администрация не несёт ответственности за их содержание. Просьба не заливать файлы, защищенные авторскими правами, а также файлы нелегального содержания!


    _________________
    [Профиль] [ЛС]

    -746

    Создавать темы 28-Дек-2015 16:12 (спустя 9 месяцев 5 дней)

           

    Топик был перенесен из форума Зарубежное кино (HD Video) в форум Новогодние релизы - Фильмы, Мультфильмы


    -sasha2006

    _________________
    Как бы ты высоко не летал, не забывай, с кем ты ползал..
     
    Показать сообщения:    
    Ответить на тему

    Текущее время: Сегодня, в 23:58

    Часовой пояс: GMT + 2



    Вы не можете начинать темы
    Вы не можете отвечать на сообщения
    Вы не можете редактировать свои сообщения
    Вы не можете удалять свои сообщения
    Вы не можете голосовать в опросах
    Вы не можете прикреплять файлы к сообщениям
    Вы не можете скачивать файлы