BitTorrentTracker PerecTracker.org
BitTorrentTracker PerecTracker.org
    
Регистрация  ·  Вход
 
 · 
Забыли пароль?

  • Несносные боссы 2 / Horrible Bosses 2 (Шон Андерс / Sean Anders) [2014, США, New Line Cinema, HDRip-AVC] [Extended Cut] AVO (Михаил Яроцкий)

    Ответить на тему
     
    Автор Сообщение

    Light

    Создавать темы 22-Мар-2015 12:43

           

    [Цитировать]

    Несносные боссы 2 / Horrible Bosses 2 / Extended Cut
    Страна: США
    Жанр: New Line Cinema
    Год выпуска: 2014
    Продолжительность: 01:55:44
    Перевод: Авторский (одноголосый закадровый) Михаил Яроцкий
    Cубтитры: нет
    Режиссер: Шон Андерс / Sean Anders
    В ролях: Джейсон Бейтмен, Джейсон Судейкис, Чарли Дэй, Крис Пайн, Дженнифер Энистон, Кристоф Вальц, Джейми Фокс, Кевин Спейси, Джонатан Бэнкс, Линдси Слоун
    Описание: Ник, Дэйл и Курт решают сами стать боссами и открывают собственный бизнес. Но инвестор кидает их. Тогда они решают похитить его взрослого сына, чтобы получить выкуп и вернуть себе контроль над компанией.
    Сэмпл: http://sendfile.su/1098684
    Качество видео: HDRip-AVC
    Формат видео: MKV
    Видео: 1024x432 (2.40:1), 23.976 fps, x264 ~1 353 kbps, 0.128 bit/pixel
    Аудио: 48.0 KHz, AC-3, 6 ch, 448 Kbps

    Log x264

    x264 [info]: frame I:2043 Avg QP:15.02 size: 43197
    x264 [info]: frame P:37355 Avg QP:16.64 size: 15081
    x264 [info]: frame B:127227 Avg QP:18.27 size: 4075
    x264 [info]: consecutive B-frames: 2.3% 2.9% 6.1% 30.3% 17.6% 39.0% 0.8% 0.4% 0.5%
    x264 [info]: mb I I16..4: 29.1% 0.0% 70.9%
    x264 [info]: mb P I16..4: 24.5% 0.0% 0.0% P16..4: 62.9% 0.0% 0.0% 0.0% 0.0% skip:12.6%
    x264 [info]: mb B I16..4: 3.4% 0.0% 0.0% B16..8: 28.6% 0.0% 0.0% direct:15.6% skip:52.4% L0:31.5% L1:41.6% BI:26.9%
    x264 [info]: final ratefactor: 18.50
    x264 [info]: direct mvs spatial:99.9% temporal:0.1%
    x264 [info]: coded y,uvDC,uvAC intra: 57.0% 72.8% 51.4% inter: 15.5% 18.1% 1.7%
    x264 [info]: i16 v,h,dc,p: 42% 25% 23% 10%
    x264 [info]: i4 v,h,dc,ddl,ddr,vr,hd,vl,hu: 27% 22% 11% 6% 7% 7% 6% 7% 6%
    x264 [info]: i8c dc,h,v,p: 53% 20% 22% 5%
    x264 [info]: Weighted P-Frames: Y:5.7% UV:3.7%
    x264 [info]: kb/s:1346.81

    MediaInfo

    Общее
    Уникальный идентификатор : 251257156766000477471054897490266990978 (0xBD065E421330607FA85E01E9F788A982)
    Полное имя : D:\Фильмы\Horrible Bosses 2 [Extended Cut] 2014.AVO.HDRip-AVC.mkv
    Формат : Matroska
    Версия формата : Version 2
    Размер файла : 1,46 Гбайт
    Продолжительность : 1 ч. 55 м.
    Общий поток : 1799 Кбит/сек
    Название фильма : Rip_by_zzZGVvv
    Дата кодирования : UTC 2015-03-21 11:03:03
    Программа кодирования : mkvmerge v5.8.0 ('No Sleep / Pillow') built on Sep 2 2012 15:37:04
    Библиотека кодирования : libebml v1.2.3 + libmatroska v1.3.0
    Attachment : Yes
    Видео
    Идентификатор : 1
    Формат : AVC
    Формат/Информация : Advanced Video Codec
    Профиль формата : High@L4.1
    Параметр CABAC формата : Да
    Параметр ReFrames формата : 10 кадров
    Идентификатор кодека : V_MPEG4/ISO/AVC
    Продолжительность : 1 ч. 55 м.
    Битрейт : 1353 Кбит/сек
    Ширина : 1024 пикселя
    Высота : 432 пикселя
    Соотношение сторон : 2,40:1
    Режим частоты кадров : Постоянный
    Частота кадров : 23,976 кадра/сек
    Цветовое пространство : YUV
    Субдискретизация насыщенности : 4:2:0
    Битовая глубина : 8 бит
    Тип развёртки : Прогрессивная
    Бит/(Пиксели*Кадры) : 0.128
    Размер потока : 1,06 Гбайт (73%)
    Заголовок : Horrible Bosses 2 [Extended Cut]
    Библиотека кодирования : x264 core 125 r2208 d9d2288
    Настройки программы : cabac=1 / ref=10 / deblock=1:-2:-1 / analyse=0x3:0x133 / me=umh / subme=9 / psy=1 / psy_rd=1.00:0.10 / mixed_ref=1 / me_range=24 / chroma_me=1 / trellis=2 / 8x8dct=1 / cqm=0 / deadzone=21,11 / fast_pskip=0 / chroma_qp_offset=-3 / threads=3 / lookahead_threads=1 / sliced_threads=0 / nr=0 / decimate=1 / interlaced=0 / bluray_compat=0 / constrained_intra=0 / bframes=8 / b_pyramid=2 / b_adapt=2 / b_bias=0 / direct=3 / weightb=1 / open_gop=0 / weightp=2 / keyint=240 / keyint_min=23 / scenecut=40 / intra_refresh=0 / rc=2pass / mbtree=0 / bitrate=1353 / ratetol=1.0 / qcomp=0.60 / qpmin=0 / qpmax=69 / qpstep=4 / cplxblur=20.0 / qblur=0.5 / ip_ratio=1.40 / pb_ratio=1.30 / aq=1:1.00
    Язык : Russian
    Default : Да
    Forced : Да
    Аудио
    Идентификатор : 2
    Формат : AC-3
    Формат/Информация : Audio Coding 3
    Расширение режима : CM (complete main)
    Параметр Endianness формата : Big
    Идентификатор кодека : A_AC3
    Продолжительность : 1 ч. 55 м.
    Вид битрейта : Постоянный
    Битрейт : 448 Кбит/сек
    Каналы : 6 каналов
    Расположение каналов : Front: L C R, Side: L R, LFE
    Частота : 48,0 КГц
    Битовая глубина : 16 бит
    Метод сжатия : С потерями
    Размер потока : 371 Мбайт (25%)
    Заголовок : Авторский (одноголосый, закадровый) [Михаил Яроцкий]
    Язык : Russian
    Default : Да
    Forced : Да

    Скриншот c названием фильма

    Скриншоты

    Скачать .torrent

    Скачать торрент-файл бесплатно и на максимальной скорости!

    Как скачивать? · Что такое торрент? · Рейтинг и ограничения

    !ВНИМАНИЕ!
    Сайт не распространяет и не хранит электронные версии произведений, а занимается лишь лишь предоставлением доступа к создаваемому пользователями каталогу ссылок на торрент-файлы, которые содержат только списки хеш-сумм, убедительная просьба с жалобами обращаться напрямую к пользователю. Файлы для обмена на трекере предоставлены пользователями сайта, и администрация не несёт ответственности за их содержание. Просьба не заливать файлы, защищенные авторскими правами, а также файлы нелегального содержания!


    _________________
    [Профиль] [ЛС]
    Показать сообщения:    
    Ответить на тему

    Текущее время: Сегодня, в 18:21

    Часовой пояс: GMT + 2



    Вы не можете начинать темы
    Вы не можете отвечать на сообщения
    Вы не можете редактировать свои сообщения
    Вы не можете удалять свои сообщения
    Вы не можете голосовать в опросах
    Вы не можете прикреплять файлы к сообщениям
    Вы не можете скачивать файлы