BitTorrentTracker PerecTracker.org
BitTorrentTracker PerecTracker.org
    
Регистрация  ·  Вход
 
 · 
Забыли пароль?

  • Про Красную Шапочку (Леонид Нечаев) [1977, сказка, детский, DVB]

    Ответить на тему
     
    Автор Сообщение

    Light

    Создавать темы 21-Мар-2015 19:56

           

    [Цитировать]

    Про Красную Шапочку
    Жанр: сказка, детский
    Год выпуска: 1977
    Продолжительность: 01:03:11 + 01:08:39
    Режиссёр: Леонид Нечаев
    В ролях: Яна Поплавская, Дима Иосифов, Владимир Басов, Николай Трофимов, Рина Зеленая, Евгений Евстигнеев, Галина Волчек, Ролан Быков, Стефания Станюта, Мария Барабанова, Мария Виноградова, Юрий Белов, Александра Дорохина, Георгий Георгиу, Ростислав Шмырев
    Описание: После знаменитого всем с детских лет похода Красной Шапочки к Бабушке, в результате которого коварный Серый Волк был убит охотниками, прошло вроде бы совсем немного времени. Но Шапочка узнает, что у нее снова заболела Бабушка. Красная Шапочка собирается в путь. Она еще не знает, что с Бабушкой у нее все в порядке, и известие ложное. Просто родня Волка хочет поквитаться с ненавистной им девочкой, для чего выманивает ее в лес. Но изловить Красную Шапочку не так-то просто. Отважная, смелая и находчивая Красная Шапочка очень скоро нарушает все планы двух волков, Толстого и Длинного, и вот уже они, фактически, пляшут под ее дудку. Во время путешествия к Бабушке у Шапочки будет немало самых интересных встреч - с избалованным графенком, вредным пастушком, трусливым Охотником, Астрономом и волчонком...

    Трансляция спутникового канала:

    Семпл: https://yadi.sk/d/2PHssNPHTaY2q
    Качество видео: DVB
    Формат видео: MPEG-PS
    Видео: MPEG2 Video, 720x576 (4:3), 25 fps, 3100 kbps
    Аудио: MPEG Audiо, 2 сh, 48 kHz, 192 kbps

    скриншот c названием фильма

    MediaInfo

    General
    Complete name : D:\___USSR\Про Красную Шапочку. (1977)\1с. Про Красную Шапочку. (1977)_DVB by SLuMeP.mpg
    Format : MPEG-PS
    File size : 1.49 GiB
    Duration : 1h 3mn
    Overall bit rate mode : Variable
    Overall bit rate : 3 380 Kbps
    Video
    ID : 224 (0xE0)
    Format : MPEG Video
    Format version : Version 2
    Format profile : Main@Main
    Format settings, BVOP : No
    Format settings, Matrix : Custom
    Format settings, GOP : M=3, N=12
    Duration : 1h 3mn
    Bit rate mode : Variable
    Bit rate : 3 121 Kbps
    Maximum bit rate : 5 000 Kbps
    Width : 720 pixels
    Height : 576 pixels
    Display aspect ratio : 4:3
    Frame rate : 25.000 fps
    Standard : PAL
    Color space : YUV
    Chroma subsampling : 4:2:0
    Bit depth : 8 bits
    Scan type : Interlaced
    Scan order : Top Field First
    Compression mode : Lossy
    Bits/(Pixel*Frame) : 0.301
    Time code of first frame : 00:00:00:00
    Time code source : Group of pictures header
    Stream size : 1.38 GiB (92%)
    Audio
    ID : 192 (0xC0)
    Format : MPEG Audio
    Format version : Version 1
    Format profile : Layer 2
    Duration : 1h 3mn
    Bit rate mode : Constant
    Bit rate : 192 Kbps
    Channel(s) : 2 channels
    Sampling rate : 48.0 KHz
    Compression mode : Lossy
    Stream size : 86.8 MiB (6%)

    Скриншоты


    Скачать .torrent

    Скачать торрент-файл бесплатно и на максимальной скорости!

    Как скачивать? · Что такое торрент? · Рейтинг и ограничения

    !ВНИМАНИЕ!
    Сайт не распространяет и не хранит электронные версии произведений, а занимается лишь лишь предоставлением доступа к создаваемому пользователями каталогу ссылок на торрент-файлы, которые содержат только списки хеш-сумм, убедительная просьба с жалобами обращаться напрямую к пользователю. Файлы для обмена на трекере предоставлены пользователями сайта, и администрация не несёт ответственности за их содержание. Просьба не заливать файлы, защищенные авторскими правами, а также файлы нелегального содержания!


    _________________
    [Профиль] [ЛС]
    Показать сообщения:    
    Ответить на тему

    Текущее время: Сегодня, в 10:41

    Часовой пояс: GMT + 2



    Вы не можете начинать темы
    Вы не можете отвечать на сообщения
    Вы не можете редактировать свои сообщения
    Вы не можете удалять свои сообщения
    Вы не можете голосовать в опросах
    Вы не можете прикреплять файлы к сообщениям
    Вы не можете скачивать файлы