Register  ·  Log in
Forgot password?

  • После дождичка в четверг (Михаил Юзовский) [1985, СССР, сказка, фэнтези, комедия, приключения, семейный, DVDRip] [Немецкий трансфер]

    Reply to topic
    Author Message


    Post 21-Mar-2015 20:55



    После дождичка в четверг-Год выпуска: 1985
    Страна: СССР
    Жанр: Сказка, фэнтези, комедия, приключения, семейный
    Продолжительность: 01:14:08-Режиссер: Михаил Юзовский
    В ролях: Олег Табаков, Татьяна Пельтцер, Валентина Талызина, Юрий Медведев, Владимир Федоров, Семен Фарада, Олег Анофриев, Владислав Толдыков, Марина Зудина, Алексей Войтюк и др.-Описание: Однажды, после дождичка в четверг, у царя Авдея родился первенец. В тот же день родила мальчика и ключница Варвара, а в капусте был обнаружен новорожденный подкидыш. Всех троих нарекли Иванами — и Авдей приказал растить хлопцев вместе. Однако ключница сделала по-своему: положила в царскую люльку своего Ивана, а двух других отдала разбойникам...--Качество видео: DVDRip
    Формат видео: AVI
    Видео: 640x272 (2.35:1), 25 fps, XviD build 73 ~1202 kbps avg, 0.28 bit/pixel
    Аудио: 48 kHz, AC3 Dolby Digital, 2/0 (L,R) ch, ~192 kbps
    Размер: 744.56 Mb ( 780 726 272 bytes ) 1/6 DVD


    Complete name                            : C:\После дождичка, в четверг IceStorm DVD-5_Custom\VIDEO_TS\Posle_dozhdichka_v_chetverg.1985.DVDRip.tRu.avi
    Format                                   : AVI
    Format/Info                              : Audio Video Interleave
    File size                                : 745 MiB
    Duration                                 : 1h 14mn
    Overall bit rate                         : 1 404 Kbps
    Movie name                               : После дождичка в четверг (1985) - DVDRip by Juvelir
    Writing application                      : VirtualDubMod | || (build 2550/release)
    ID                                       : 0
    Format                                   : MPEG-4 Visual
    Format profile                           : Advanced Simple@L5
    Format settings, BVOP                    : 2
    Format settings, QPel                    : No
    Format settings, GMC                     : No warppoints
    Format settings, Matrix                  : Custom
    Codec ID                                 : XVID
    Codec ID/Hint                            : XviD
    Duration                                 : 1h 14mn
    Bit rate                                 : 1 203 Kbps
    Width                                    : 640 pixels
    Height                                   : 272 pixels
    Display aspect ratio                     : 2.35:1
    Frame rate                               : 25.000 fps
    Color space                              : YUV
    Chroma subsampling                       : 4:2:0
    Bit depth                                : 8 bits
    Scan type                                : Progressive
    Compression mode                         : Lossy
    Bits/(Pixel*Frame)                       : 0.276
    Stream size                              : 638 MiB (86%)
    Writing library                          : XviD 73
    ID                                       : 1
    Format                                   : AC-3
    Format/Info                              : Audio Coding 3
    Mode extension                           : CM (complete main)
    Format settings, Endianness              : Big
    Codec ID                                 : 2000
    Duration                                 : 1h 14mn
    Bit rate mode                            : Constant
    Bit rate                                 : 192 Kbps
    Channel count                            : 2 channels
    Channel positions                        : Front: L R
    Sampling rate                            : 48.0 KHz
    Bit depth                                : 16 bits
    Compression mode                         : Lossy
    Stream size                              : 102 MiB (14%)
    Alignment                                : Split accross interleaves
    Interleave, duration                     : 40 ms (1.00 video frame)
    Interleave, preload duration             : 500 ms[/color]


    Download .torrent

    Download free and at maximum speed!

    How to Download? · What is a torrent? · Ratings and Limitations

    The site does not extend and does not store electronic(digital) versions of products, and only gives access to a reference catalogue created by users on torrent-files which contain only lists of the hash-sums, the earnest entreaty, with complaints(abuse) to access directly to the user. Files for an exchange on tracker are given by users of a site, and the administration does not bear the responsibility for their maintenance. The request to not fill in the files protected by copyrights, and also files of the illegal maintenance!

    [Profile] [PM]
    Display posts from previous:    
    Reply to topic

    The time now is: Today 20:12

    All times are GMT + 3 Hours

    You cannot post new topics in this forum
    You cannot reply to topics in this forum
    You cannot edit your posts in this forum
    You cannot delete your posts in this forum
    You cannot vote in polls in this forum
    You cannot attach files in this forum
    You cannot download files in this forum