BitTorrentTracker PerecTracker.org
BitTorrentTracker PerecTracker.org
    
Регистрация  ·  Вход
 
 · 
Забыли пароль?

  • Бабушка для всех (Нана Двалишвили) [1987 г., Детский, комедия, мелодрама, музыкальный, TVRip]

    Ответить на тему
     
    Автор Сообщение

    Light

    Создавать темы 21-Мар-2015 19:55

           

    [Цитировать]

    Бабушка для всехГод выпуска: 1987.
    Жанр: Детский, комедия, мелодрама, музыкальный.
    Продолжительность: 01:04:18.
    Режиссер: Нана Двалишвили.
    В ролях:
    Марина Тбилели, Гурам Пирцхалава, Татиа Рухадзе, Гиа Двалишвили, Нодар Дугладзе, Берта Хапава, Тамара Кирикашвили, Давид Папуашвили, Бекар Монавардисашвили, Байя Двалишвили.
    Описание:
    Детский танцевальный ансамбль готовится к республиканскому конкурсу. Кетеван, бабушка одного из маленьких танцоров, не жалея сил, помогает ребятам. Ансамбль становится лауреатом конкурса и его отправляют в гастрольную поездку за рубеж. Руководство не хочет брать с собой Кетеван, но дети не соглашаются ехать без их "общей бабушки".
    В фильме снимался детский хореографический ансамбль Тбилисской третьей экспериментальной школы.
    Хореограф - Георгий Чачава.

    Доп. информация:
    Страна: СССР .
    Киностудия: "Грузия-фильм" по заказу Гостелерадио СССР.
    Автор сценария: Заира Арсенишвили.
    Оператор: Нугзар Эркомаишвили.
    Композитор: Георгий Цинцадзе.
    Художник: Борис Цхакая.

    Еще постер

    Релиз

    Качество: TVRip
    Формат: AVI
    Видео: 720x544 (1.32:1), 25 fps, XviD MPEG-4 ~1385 kbps avg, 0.14 bit/pixel
    Аудио: 48 kHz, MPEG Layer 3, 2 ch, ~128.00 kbps avg

    Отчет Media Info

    Общее
    Полное имя : Babushka.dlya.vseh.1987.XviD.TVRip.fenixclub.avi
    Формат : AVI
    Формат/Информация : Audio Video Interleave
    Размер файла : 701 Мбайт
    Продолжительность : 1 ч. 4 м.
    Общий поток : 1523 Кбит/сек
    Программа кодирования : VirtualDubModRus 1.5.10.2 (build 2542/release)
    Библиотека кодирования : VirtualDub build 34753/release
    Видео
    Идентификатор : 0
    Формат : MPEG-4 Visual
    Профиль формата : Advanced Simple@L5
    Параметр BVOP формата : 2
    Параметр QPel формата : Нет
    Параметр GMC формата : Без точки перехода
    Параметр матрицы формата : Default (H.263)
    Режим смешивания : Сжатый битовый поток
    Идентификатор кодека : XVID
    Идентификатор кодека/Подсказка : XviD
    Продолжительность : 1 ч. 4 м.
    Битрейт : 1386 Кбит/сек
    Ширина : 720 пикселей
    Высота : 544 пикселя
    Соотношение сторон : 4:3
    Частота кадров : 25,000 кадров/сек
    Цветовое пространство : YUV
    Субдискретизация насыщенности : 4:2:0
    Битовая глубина : 8 бит
    Тип развёртки : Прогрессивная
    Метод сжатия : С потерями
    Бит/(Пиксели*Кадры) : 0.142
    Размер потока : 637 Мбайт (91%)
    Библиотека кодирования : XviD 1.2.1 (UTC 2008-12-04)
    Аудио
    Идентификатор : 1
    Формат : MPEG Audio
    Версия формата : Version 1
    Профиль формата : Layer 3
    Режим : Joint stereo
    Расширение режима : MS Stereo
    Идентификатор кодека : 55
    Идентификатор кодека/Подсказка : MP3
    Продолжительность : 1 ч. 4 м.
    Вид битрейта : Постоянный
    Битрейт : 128 Кбит/сек
    Каналы : 2 канала
    Частота : 48,0 КГц
    Метод сжатия : С потерями
    Размер потока : 58,9 Мбайт (8%)
    Выравнивание : Разделение по промежуткам
    Продолжительность промежутка : 40 мс. (1,00 видеокадр)
    Время предзагрузки промежутка : 500 мс.
    Скриншоты

    Альтернативный хост


    Скачать .torrent

    Скачать торрент-файл бесплатно и на максимальной скорости!

    Как скачивать? · Что такое торрент? · Рейтинг и ограничения

    !ВНИМАНИЕ!
    Сайт не распространяет и не хранит электронные версии произведений, а занимается лишь лишь предоставлением доступа к создаваемому пользователями каталогу ссылок на торрент-файлы, которые содержат только списки хеш-сумм, убедительная просьба с жалобами обращаться напрямую к пользователю. Файлы для обмена на трекере предоставлены пользователями сайта, и администрация не несёт ответственности за их содержание. Просьба не заливать файлы, защищенные авторскими правами, а также файлы нелегального содержания!


    _________________
    [Профиль] [ЛС]
    Показать сообщения:    
    Ответить на тему

    Текущее время: Сегодня, в 02:48

    Часовой пояс: GMT + 2



    Вы не можете начинать темы
    Вы не можете отвечать на сообщения
    Вы не можете редактировать свои сообщения
    Вы не можете удалять свои сообщения
    Вы не можете голосовать в опросах
    Вы не можете прикреплять файлы к сообщениям
    Вы не можете скачивать файлы