BitTorrentTracker PerecTracker.org
BitTorrentTracker PerecTracker.org
    
Регистрация  ·  Вход
 
 · 
Забыли пароль?

  • С нами не соскучишься (Антонина Зиновьева) [1985, экранизация, DVB]

    Ответить на тему
     
    Автор Сообщение

    Light

    Создавать темы 21-Мар-2015 19:55

           

    [Цитировать]

    С нами не соскучишься (3 серии из 4)
    06.07.14 торрент обновлен, добавлена запись 2-й серии, любезно предоставленная коллегой ItarTass
    Жанр: экранизация
    Год выпуска: 1985
    Продолжительность: 00:49:07 + 00:47:22 + 00:43:42
    Режиссёр: Антонина Зиновьева
    В ролях: Анастасия Фатеева, Николай Ермошин, Кирилл Николаев, Игорь Помазанов, Ксения Кутепова, Полина Кутепова, Денис Бургазлиев, Павел Суворов, Елена Морозова, Юлия Алешина, Катя Диденко, Дмитрий Паперный
    Описание: Аленький цветочек - у пяти девочек из шестого класса "В" почти в один день был день рождения. Их одноклассники решили одновременно отпраздновать это событие. Свою затею они держали в строгой тайне. Когда же настал намеченный день, праздник прошел весело и интересно...
    6 "В" и Красная шапочка - у новенькой ученицы шестого класса "В" Наташи Самсоновой не складывались отношения в коллективе. После ряда недоразумений, таинственных происшествий в классе, безрезультатных поисков "виновного", выяснилось, что "неуловимой" была Наташа. Между девочкой и ее однокашниками установились дружеские взаимоотношения.
    Доп. информация: Запись потока *.ts со спутника EUTELSAT, ремукс в *.mpg программой VideoReDo.
    Качество видео: DVB
    Формат видео: MPEG-PS
    Видео: MPEG2 Video, 720x576 (4:3), 25,000 кадров/сек, 4848 Кбит/сек
    Аудио: MPEG Audio, 48,0 КГц, 192 Кбит/сек, 2 канала

    MediaInfo

    Общее
    Полное имя : D:\Torrent\С НАМИ НЕ СОСКУЧИШЬСЯ\С нами не соскучишься. 2 серия (По закону инерции) (1985)(DVB)Nostalgy.mpg
    Формат : MPEG-PS
    Размер файла : 863 Мбайт
    Продолжительность : 49 м.
    Режим общего битрейта : Переменный
    Общий поток : 2455 Кбит/сек
    Видео
    Идентификатор : 224 (0xE0)
    Формат : MPEG Video
    Версия формата : Version 2
    Профиль формата : Main@Main
    Параметр BVOP формата : Да
    Параметр матрицы формата : Выборочная
    Параметр GOP формата : M=3, N=24
    Продолжительность : 49 м.
    Вид битрейта : Переменный
    Битрейт : 2215 Кбит/сек
    Максимальный битрейт : 15,0 Мбит/сек
    Ширина : 704 пикселя
    Высота : 576 пикселей
    Соотношение сторон : 4:3
    Частота кадров : 25,000 кадров/сек
    Стандарт вещания : PAL
    Цветовое пространство : YUV
    Субдискретизация насыщенности : 4:2:0
    Битовая глубина : 8 бит
    Метод сжатия : С потерями
    Бит/(Пиксели*Кадры) : 0.218
    Временной код первого кадра : 00:00:00:00
    Оригинал временного кода : Group of pictures header
    Размер потока : 778 Мбайт (90%)
    Аудио
    Идентификатор : 192 (0xC0)
    Формат : MPEG Audio
    Версия формата : Version 1
    Профиль формата : Layer 2
    Продолжительность : 49 м.
    Вид битрейта : Постоянный
    Битрейт : 192 Кбит/сек
    Каналы : 2 канала
    Частота : 48,0 КГц
    Метод сжатия : С потерями
    Задержка видео : 10 мс.
    Размер потока : 67,5 Мбайт (8%)
    Общее
    Полное имя : D:\Torrent\С НАМИ НЕ СОСКУЧИШЬСЯ\С НАМИ НЕ СОСКУЧИШЬСЯ 4 АЛЕНЬКИЙ ЦВЕТОЧЕК.mpg
    Формат : MPEG-PS
    Размер файла : 1,70 Гбайт
    Продолжительность : 47 м.
    Режим общего битрейта : Переменный
    Общий поток : 5142 Кбит/сек
    Видео
    Идентификатор : 224 (0xE0)
    Формат : MPEG Video
    Версия формата : Version 2
    Профиль формата : Main@Main
    Параметр BVOP формата : Да
    Параметр матрицы формата : Выборочная
    Параметр GOP формата : Variable
    Продолжительность : 47 м.
    Вид битрейта : Переменный
    Битрейт : 4848 Кбит/сек
    Максимальный битрейт : 15,0 Мбит/сек
    Ширина : 720 пикселей
    Высота : 576 пикселей
    Соотношение сторон : 4:3
    Частота кадров : 25,000 кадров/сек
    Стандарт вещания : PAL
    Цветовое пространство : YUV
    Субдискретизация насыщенности : 4:2:0
    Битовая глубина : 8 бит
    Тип развёртки : Чересстрочная
    Порядок развёртки : Верхнее поле первое
    Метод сжатия : С потерями
    Бит/(Пиксели*Кадры) : 0.468
    Размер потока : 1,60 Гбайт (94%)
    Аудио
    Идентификатор : 192 (0xC0)
    Формат : MPEG Audio
    Версия формата : Version 1
    Профиль формата : Layer 2
    Продолжительность : 47 м.
    Вид битрейта : Постоянный
    Битрейт : 192 Кбит/сек
    Каналы : 2 канала
    Частота : 48,0 КГц
    Метод сжатия : С потерями
    Задержка видео : 9 мс.
    Размер потока : 65,0 Мбайт (4%)
    General
    Complete name : X:\Torrent\С НАМИ НЕ СОСКУЧИШЬСЯ\6 В и Красная шапочка (Ностальгия).mpg
    Format : MPEG-PS
    File size : 1.56 GiB
    Duration : 43mn 41s
    Overall bit rate mode : Variable
    Overall bit rate : 5 107 Kbps
    Video
    ID : 224 (0xE0)
    Format : MPEG Video
    Format version : Version 2
    Format profile : Main@Main
    Format settings, BVOP : Yes
    Format settings, Matrix : Custom
    Format settings, GOP : M=1, N=37
    Duration : 43mn 41s
    Bit rate mode : Variable
    Bit rate : 4 813 Kbps
    Maximum bit rate : 15.0 Mbps
    Width : 720 pixels
    Height : 576 pixels
    Display aspect ratio : 4:3
    Frame rate : 25.000 fps
    Standard : PAL
    Color space : YUV
    Chroma subsampling : 4:2:0
    Bit depth : 8 bits
    Scan type : Interlaced
    Scan order : Top Field First
    Compression mode : Lossy
    Bits/(Pixel*Frame) : 0.464
    Stream size : 1.47 GiB (94%)
    Audio
    ID : 192 (0xC0)
    Format : MPEG Audio
    Format version : Version 1
    Format profile : Layer 2
    Duration : 43mn 41s
    Bit rate mode : Constant
    Bit rate : 192 Kbps
    Channel(s) : 2 channels
    Sampling rate : 48.0 KHz
    Compression mode : Lossy
    Stream size : 60.0 MiB (4%)

    Скриншоты

    Скачать .torrent

    Скачать торрент-файл бесплатно и на максимальной скорости!

    Как скачивать? · Что такое торрент? · Рейтинг и ограничения

    !ВНИМАНИЕ!
    Сайт не распространяет и не хранит электронные версии произведений, а занимается лишь лишь предоставлением доступа к создаваемому пользователями каталогу ссылок на торрент-файлы, которые содержат только списки хеш-сумм, убедительная просьба с жалобами обращаться напрямую к пользователю. Файлы для обмена на трекере предоставлены пользователями сайта, и администрация не несёт ответственности за их содержание. Просьба не заливать файлы, защищенные авторскими правами, а также файлы нелегального содержания!


    _________________
    [Профиль] [ЛС]
    Показать сообщения:    
    Ответить на тему

    Текущее время: Сегодня, в 03:10

    Часовой пояс: GMT + 2



    Вы не можете начинать темы
    Вы не можете отвечать на сообщения
    Вы не можете редактировать свои сообщения
    Вы не можете удалять свои сообщения
    Вы не можете голосовать в опросах
    Вы не можете прикреплять файлы к сообщениям
    Вы не можете скачивать файлы