BitTorrentTracker PerecTracker.org
BitTorrentTracker PerecTracker.org
    
Регистрация  ·  Вход
 
 · 
Забыли пароль?

  • Гариб в стране джиннов (Али Саттар Атакишиев) [1977, Сказка, комедия, приключения, семейный, VHSRip]

    Ответить на тему
     
    Автор Сообщение

    Light

    Создавать темы 21-Мар-2015 19:55

           

    [Цитировать]

    Гариб в стране джиннов
    Жанр: Сказка, комедия, приключения, семейный
    Год выпуска: 1977
    Продолжительность: 01:10:51
    Выпущено: СССР, киностудия "Азербайджанфильм" им. Дж. Джабарлы
    Режиссёр: Али Саттар Атакишиев
    В ролях: Бахтияр Ханызаде, Мухтар Маниев, Амалия Панахова, Ага Гусейн Джавадов, Гамлет Хани-заде, Гюльнара Эфендиева, Фирангиз Шарифова, Алескер Мамедоглу, Мубариз Алихан-оглы, Ахмед Ахмедов
    Описание: Сказка повествует о несломленности человеческой силы воли, о том, что богатство не заменит родины и любви семьи.
    Доп. информация: Роли дублировали: Станислав Захаров, Борис Руднев, Николай Граббе, Надежда Репина, Георгий Милляр, Владимир Гусев, Евгения Сабельникова, Светлана Коновалова, Георгий Вицин, Раднэр Муратов, Даниил Нетребин, Георгий Георгиу
    Фильм дублирован на киностудии "Мосфильм".
    Режиссер дубляжа - А. Разумовский.
    Звукооператор - Ю. Булгакова
    Сэмпл: http://multi-up.com/985544
    Качество видео: VHSRip
    Формат видео: AVI
    Видео: MPEG-4, XviD, 720x320, 1146 kbps, 25.000 fps, 0.199 bit/px
    Аудио: MPEG Audio, МР3, 2 channels, 48.0 KHz, 128 Kbps - Советский дубляж
    Автор раздачи - shachter58

    MediaInfo

    General
    Complete name : E:\ФЕНИКСКЛУБ\garib\garib\garib\Garib.v.strane.Djinnov.1977.rus.Fenixclub.avi
    Format : AVI
    Format/Info : Audio Video Interleave
    File size : 651 MiB
    Duration : 1h 10mn
    Overall bit rate : 1 284 Kbps
    Writing application : VirtualDubMod 1.5.10.2 (build 2540/release)
    Writing library : VirtualDubMod build 2540/release
    Video #0
    ID : 0
    Format : MPEG-4 Visual
    Format profile : Advanced Simple@L5
    Format settings, BVOP : 2
    Format settings, QPel : No
    Format settings, GMC : No warppoints
    Format settings, Matrix : Default (MPEG)
    Codec ID : XVID
    Codec ID/Hint : XviD
    Duration : 1h 10mn
    Bit rate : 1 146 Kbps
    Width : 720 pixels
    Height : 320 pixels
    Display aspect ratio : 2.25:1
    Frame rate : 25.000 fps
    Color space : YUV
    Chroma subsampling : 4:2:0
    Bit depth : 8 bits
    Scan type : Progressive
    Compression mode : Lossy
    Bits/(Pixel*Frame) : 0.199
    Stream size : 581 MiB (89%)
    Writing library : XviD 64
    Audio #1
    ID : 1
    Format : MPEG Audio
    Format version : Version 1
    Format profile : Layer 3
    Mode : Joint stereo
    Mode extension : MS Stereo
    Codec ID : 55
    Codec ID/Hint : MP3
    Duration : 1h 10mn
    Bit rate mode : Constant
    Bit rate : 128 Kbps
    Channel(s) : 2 channels
    Sampling rate : 48.0 KHz
    Compression mode : Lossy
    Stream size : 64.9 MiB (10%)
    Alignment : Aligned on interleaves
    Interleave, duration : 40 ms (1.00 video frame)
    Interleave, preload duration : 504 ms

    Скриншот c названием фильма

    Скриншоты



    Скачать .torrent

    Скачать торрент-файл бесплатно и на максимальной скорости!

    Как скачивать? · Что такое торрент? · Рейтинг и ограничения

    !ВНИМАНИЕ!
    Сайт не распространяет и не хранит электронные версии произведений, а занимается лишь лишь предоставлением доступа к создаваемому пользователями каталогу ссылок на торрент-файлы, которые содержат только списки хеш-сумм, убедительная просьба с жалобами обращаться напрямую к пользователю. Файлы для обмена на трекере предоставлены пользователями сайта, и администрация не несёт ответственности за их содержание. Просьба не заливать файлы, защищенные авторскими правами, а также файлы нелегального содержания!


    _________________
    [Профиль] [ЛС]
    Показать сообщения:    
    Ответить на тему

    Текущее время: Сегодня, в 12:02

    Часовой пояс: GMT + 2



    Вы не можете начинать темы
    Вы не можете отвечать на сообщения
    Вы не можете редактировать свои сообщения
    Вы не можете удалять свои сообщения
    Вы не можете голосовать в опросах
    Вы не можете прикреплять файлы к сообщениям
    Вы не можете скачивать файлы