Register  ·  Log in
Forgot password?

  • Гариб в стране джиннов (Али Саттар Атакишиев) [1977, Сказка, комедия, приключения, семейный, VHSRip]

    Reply to topic
    Author Message


    Post 21-Mar-2015 20:55



    Гариб в стране джиннов
    Жанр: Сказка, комедия, приключения, семейный
    Год выпуска: 1977
    Продолжительность: 01:10:51
    Выпущено: СССР, киностудия "Азербайджанфильм" им. Дж. Джабарлы
    Режиссёр: Али Саттар Атакишиев
    В ролях: Бахтияр Ханызаде, Мухтар Маниев, Амалия Панахова, Ага Гусейн Джавадов, Гамлет Хани-заде, Гюльнара Эфендиева, Фирангиз Шарифова, Алескер Мамедоглу, Мубариз Алихан-оглы, Ахмед Ахмедов
    Описание: Сказка повествует о несломленности человеческой силы воли, о том, что богатство не заменит родины и любви семьи.
    Доп. информация: Роли дублировали: Станислав Захаров, Борис Руднев, Николай Граббе, Надежда Репина, Георгий Милляр, Владимир Гусев, Евгения Сабельникова, Светлана Коновалова, Георгий Вицин, Раднэр Муратов, Даниил Нетребин, Георгий Георгиу
    Фильм дублирован на киностудии "Мосфильм".
    Режиссер дубляжа - А. Разумовский.
    Звукооператор - Ю. Булгакова
    Качество видео: VHSRip
    Формат видео: AVI
    Видео: MPEG-4, XviD, 720x320, 1146 kbps, 25.000 fps, 0.199 bit/px
    Аудио: MPEG Audio, МР3, 2 channels, 48.0 KHz, 128 Kbps - Советский дубляж
    Автор раздачи - shachter58


    Complete name : E:\ФЕНИКСКЛУБ\garib\garib\garib\Garib.v.strane.Djinnov.1977.rus.Fenixclub.avi
    Format : AVI
    Format/Info : Audio Video Interleave
    File size : 651 MiB
    Duration : 1h 10mn
    Overall bit rate : 1 284 Kbps
    Writing application : VirtualDubMod (build 2540/release)
    Writing library : VirtualDubMod build 2540/release
    Video #0
    ID : 0
    Format : MPEG-4 Visual
    Format profile : Advanced Simple@L5
    Format settings, BVOP : 2
    Format settings, QPel : No
    Format settings, GMC : No warppoints
    Format settings, Matrix : Default (MPEG)
    Codec ID : XVID
    Codec ID/Hint : XviD
    Duration : 1h 10mn
    Bit rate : 1 146 Kbps
    Width : 720 pixels
    Height : 320 pixels
    Display aspect ratio : 2.25:1
    Frame rate : 25.000 fps
    Color space : YUV
    Chroma subsampling : 4:2:0
    Bit depth : 8 bits
    Scan type : Progressive
    Compression mode : Lossy
    Bits/(Pixel*Frame) : 0.199
    Stream size : 581 MiB (89%)
    Writing library : XviD 64
    Audio #1
    ID : 1
    Format : MPEG Audio
    Format version : Version 1
    Format profile : Layer 3
    Mode : Joint stereo
    Mode extension : MS Stereo
    Codec ID : 55
    Codec ID/Hint : MP3
    Duration : 1h 10mn
    Bit rate mode : Constant
    Bit rate : 128 Kbps
    Channel(s) : 2 channels
    Sampling rate : 48.0 KHz
    Compression mode : Lossy
    Stream size : 64.9 MiB (10%)
    Alignment : Aligned on interleaves
    Interleave, duration : 40 ms (1.00 video frame)
    Interleave, preload duration : 504 ms

    Скриншот c названием фильма


    Download .torrent

    Download free and at maximum speed!

    How to Download? · What is a torrent? · Ratings and Limitations

    The site does not extend and does not store electronic(digital) versions of products, and only gives access to a reference catalogue created by users on torrent-files which contain only lists of the hash-sums, the earnest entreaty, with complaints(abuse) to access directly to the user. Files for an exchange on tracker are given by users of a site, and the administration does not bear the responsibility for their maintenance. The request to not fill in the files protected by copyrights, and also files of the illegal maintenance!

    [Profile] [PM]
    Display posts from previous:    
    Reply to topic

    The time now is: Today 16:26

    All times are GMT + 3 Hours

    You cannot post new topics in this forum
    You cannot reply to topics in this forum
    You cannot edit your posts in this forum
    You cannot delete your posts in this forum
    You cannot vote in polls in this forum
    You cannot attach files in this forum
    You cannot download files in this forum