BitTorrentTracker PerecTracker.org
BitTorrentTracker PerecTracker.org
    
Регистрация  ·  Вход
 
 · 
Забыли пароль?

  • Последнее лето детства (Валерий Рубинчик) [1974, приключения, DVDRip-AVC]

    Ответить на тему
     
    Автор Сообщение

    Light

    Создавать темы 21-Мар-2015 19:55

           

    [Цитировать]

    Последнее лето детства (3 серии)-Жанр: приключения
    Год выпуска: 1974
    Продолжительность: 03:13:51-Режиссёр: Валерий Рубинчик-В ролях:
    Владимир Антоник, Евгений Евстигнеев, Вячеслав Молоков, Сергей Беляк, Александр Катко, Олег Грачев, Людмила Куцелай, Александр Жданов, Леонид Белозорович, Николай Денисов
    Описание:
    Действие фильма происходит в Москве в 1925 году, во времена НЭПа. Трое главных героев - Миша, Генка и Слава выросли и стали комсомольцами. В их дворе происходит убийство - ночью застрелили инженера Зимина. Главным подозреваемым оказывается местный хулиган. Но Миша не верит в его виновность и пытается самостоятельно найти доказательства. Заключительный фильм трилогии, начатой лентами "Кортик" и "Бронзовая птица".-Исходник | Сэмпл | Кинопоиск-Качество видео: DVDRip-AVC, благодарю tmu за исходник.
    Формат видео: MKV
    Видео: x264 (High@L4.1); 696@742x574, Display aspect ratio 1.293:1, 25.000 fps, 1920 Kbps
    Аудио: Оригинал: AC-3; 16 bit 48 Khz; 2ch 224 Kbps; CBR
    MediaInfo

    -

    x264 log

    avs [info]: 696x574p 16:15 @ 25/1 fps (cfr)
    x264 [info]: using SAR=16/15
    x264 [info]: using cpu capabilities: MMX2 SSE2Fast SSSE3 SSE4.2
    x264 [info]: profile High, level 4.1
    x264 [info]: frame I:1441 Avg QP:18.23 size: 35047
    x264 [info]: frame P:59043 Avg QP:21.18 size: 17112
    x264 [info]: frame B:230312 Avg QP:22.61 size: 7516
    x264 [info]: consecutive B-frames: 1.1% 1.6% 6.1% 19.9% 15.2% 42.7% 9.2% 2.3% 1.3% 0.3% 0.1% 0.3% 0.1% 0.0% 0.0% 0.0% 0.0%
    x264 [info]: mb I I16..4: 2.4% 88.0% 9.6%
    x264 [info]: mb P I16..4: 0.8% 16.8% 1.0% P16..4: 36.1% 35.9% 8.8% 0.4% 0.0% skip: 0.2%
    x264 [info]: mb B I16..4: 0.1% 1.7% 0.1% B16..8: 37.7% 22.3% 2.9% direct:11.1% skip:24.1% L0:44.5% L1:42.8% BI:12.6%
    x264 [info]: 8x8 transform intra:90.6% inter:68.4%
    x264 [info]: direct mvs spatial:98.9% temporal:1.1%
    x264 [info]: coded y,uvDC,uvAC intra: 92.9% 62.4% 23.0% inter: 39.4% 25.3% 2.8%
    x264 [info]: i16 v,h,dc,p: 23% 14% 2% 62%
    x264 [info]: i8 v,h,dc,ddl,ddr,vr,hd,vl,hu: 10% 9% 4% 9% 14% 14% 14% 13% 13%
    x264 [info]: i4 v,h,dc,ddl,ddr,vr,hd,vl,hu: 15% 9% 2% 7% 14% 16% 14% 12% 11%
    x264 [info]: i8c dc,h,v,p: 33% 31% 22% 15%
    x264 [info]: Weighted P-Frames: Y:32.5% UV:11.2%
    x264 [info]: ref P L0: 37.0% 10.4% 15.1% 7.8% 6.0% 4.8% 3.9% 2.3% 2.1% 1.9% 1.8% 1.6% 1.5% 1.4% 1.4% 1.0%
    x264 [info]: ref B L0: 74.3% 10.2% 4.2% 2.5% 1.8% 1.5% 1.2% 0.8% 0.7% 0.7% 0.6% 0.6% 0.5% 0.4% 0.2%
    x264 [info]: ref B L1: 95.0% 5.0%
    x264 [info]: kb/s:1920.22
    encoded 290796 frames, 10.15 fps, 1920.22 kb/s
    -General
    Unique ID : 190466199258538218572954278386520309486 (0x8F4A74A5C70CAB4F84CD1AFE77103EEE)
    Complete name : Последнее лето детства.1974.mkv
    Format : Matroska
    Format version : Version 2
    File size : 2.91 GiB
    Duration : 3h 13mn
    Overall bit rate : 2 146 Kbps
    Movie name : «Последнее лето детства.1974»
    Encoded date : UTC 2014-08-30 10:56:26
    Writing application : mkvmerge v5.8.0 ('No Sleep / Pillow') built on Sep 2 2012 15:37:04
    Writing library : libebml v1.2.3 + libmatroska v1.3.0
    Comment : DVDRip-AVC
    Originally released : August 29th 2014
    Encoded by : george$t®
    Video
    ID : 1
    Format : AVC
    Format/Info : Advanced Video Codec
    Format profile : High@L4.1
    Format settings, CABAC : Yes
    Format settings, ReFrames : 16 frames
    Codec ID : V_MPEG4/ISO/AVC
    Duration : 3h 13mn
    Bit rate : 1 920 Kbps
    Width : 696 pixels
    Height : 574 pixels
    Display aspect ratio : 1.293
    Frame rate mode : Constant
    Frame rate : 25.000 fps
    Color space : YUV
    Chroma subsampling : 4:2:0
    Bit depth : 8 bits
    Scan type : Progressive
    Bits/(Pixel*Frame) : 0.192
    Stream size : 2.54 GiB (88%)
    Title : Последнее лето детства.1974
    Writing library : x264 core 142 r2409 d6b4e63
    Encoding settings : cabac=1 / ref=16 / deblock=1:-2:-2 / analyse=0x3:0x133 / me=umh / subme=11 / psy=1 / psy_rd=1.06:0.10 / mixed_ref=1 / me_range=48 / chroma_me=1 / trellis=2 / 8x8dct=1 / cqm=0 / deadzone=21,11 / fast_pskip=0 / chroma_qp_offset=-3 / threads=12 / lookahead_threads=3 / sliced_threads=0 / nr=0 / decimate=0 / interlaced=0 / bluray_compat=0 / constrained_intra=0 / bframes=16 / b_pyramid=2 / b_adapt=2 / b_bias=0 / direct=3 / weightb=1 / open_gop=0 / weightp=2 / keyint=250 / keyint_min=25 / scenecut=40 / intra_refresh=0 / rc_lookahead=40 / rc=2pass / mbtree=0 / bitrate=1920 / ratetol=1.0 / qcomp=0.60 / qpmin=0 / qpmax=32 / qpstep=4 / cplxblur=20.0 / qblur=0.5 / vbv_maxrate=50000 / vbv_bufsize=62500 / nal_hrd=none / filler=0 / ip_ratio=1.35 / pb_ratio=1.25 / aq=1:0.90
    Language : Russian
    Default : Yes
    Forced : No
    Color primaries : BT.601 PAL
    Transfer characteristics : BT.470 System B, BT.470 System G
    Matrix coefficients : BT.601
    Audio
    ID : 2
    Format : AC-3
    Format/Info : Audio Coding 3
    Mode extension : CM (complete main)
    Format settings, Endianness : Big
    Codec ID : A_AC3
    Duration : 3h 13mn
    Bit rate mode : Constant
    Bit rate : 224 Kbps
    Channel(s) : 2 channels
    Channel positions : Front: L R
    Sampling rate : 48.0 KHz
    Bit depth : 16 bits
    Compression mode : Lossy
    Stream size : 311 MiB (10%)
    Title : Оригинал: AC-3; 16 bit 48 Khz; 2ch 224 Kbps; CBR
    Language : Russian
    Default : Yes
    Forced : No
    Скачать .torrent

    Скачать торрент-файл бесплатно и на максимальной скорости!

    Как скачивать? · Что такое торрент? · Рейтинг и ограничения

    !ВНИМАНИЕ!
    Сайт не распространяет и не хранит электронные версии произведений, а занимается лишь лишь предоставлением доступа к создаваемому пользователями каталогу ссылок на торрент-файлы, которые содержат только списки хеш-сумм, убедительная просьба с жалобами обращаться напрямую к пользователю. Файлы для обмена на трекере предоставлены пользователями сайта, и администрация не несёт ответственности за их содержание. Просьба не заливать файлы, защищенные авторскими правами, а также файлы нелегального содержания!


    _________________
    [Профиль] [ЛС]
    Показать сообщения:    
    Ответить на тему

    Текущее время: Сегодня, в 02:43

    Часовой пояс: GMT + 2



    Вы не можете начинать темы
    Вы не можете отвечать на сообщения
    Вы не можете редактировать свои сообщения
    Вы не можете удалять свои сообщения
    Вы не можете голосовать в опросах
    Вы не можете прикреплять файлы к сообщениям
    Вы не можете скачивать файлы