BitTorrentTracker PerecTracker.org
BitTorrentTracker PerecTracker.org
    
Регистрация  ·  Вход
 
 · 
Забыли пароль?

  • Зелёные цепочки (Григорий Аронов) [1970, военный фильм, приключения, экранизация, DVDRip-AVC]

    Ответить на тему
     
    Автор Сообщение

    Light

    Создавать темы 21-Мар-2015 19:55

           

    [Цитировать]

    Зелёные цепочки
    Жанр: военный фильм, приключения, экранизация
    Год выпуска: 1970
    Продолжительность: 1:32:23
    Режиссёр: Григорий Аронов
    В ролях:
    Саша Григорьев … Мишка Алексеев
    Игорь Урумбеков … Васька Кожух
    Владимир Лелётко … Стёпка Панфилов, ленинградский мальчишка, пишущий стихи
    Павел Луспекаев … Иван Васильевич, плотный человек с седыми висками и весёлыми глазами,
    майор госбезопасности из Наркомвнудела на Литейном
    Олег Белов … Бураков Алексей Иванович, чекист
    Александр Михайлов … однорукий, "дядя Петя", немецкий шпион Пауль Рихтер
    Фёдор Одиноков … Семен Семёнов, шофер грузовика, пособник шпионов
    Андрей Крупенин … Шурка-"Крендель", Александр Калачев
    Аристарх Ливанов … Жорка-брюнет
    Александр Липов … Валерий Каплунов, долговязый диверсант-ракетчик, племянник часовщика
    Воронова
    Константин Адашевский … Воронов, часовщик, дядя ракетчика
    Людмила Аржаникова … управхоз
    Валентина Ананьина … Алексеева, мать Мишки
    Людмила Глазова … женщина на рынке, продаёт детские ботиночки
    Виолетта Жухимович … дружинница
    Наталия Журавель … Нюра, дружинница
    Владимир Карпенко … чекист

    Описание: По мотивам одноименного романа ленинградского писателя Германа Матвеева.
    Двое ленинградских мальчишек в августе 1941 года, во время отступления в Ленинград с группой беженцев случайно познакомились с одноруким фронтовиком, который передал им на сохранение тяжелый чемодан. Уже в осаждённом городе трое друзей - подростков, Миша, Васька и Степка, решили вскрыть чемодан. Но найдя там ракетницу с большим количеством патронов, и опрометчиво совершив выстрелы из неё, они оказались в поле зрения сотрудников советской контрразведки. Участвуя в мероприятиях по выявлению шпионской сети, ребята помогли майору контрразведки выйти на след банды диверсантов, наводившей с помощью выстрелов из ракетниц фашистские самолёты на оборонные объекты и устраивавшей взрывы на продовольственных предприятиях Ленинграда. Под руководством группы опытного чекиста Буракова ленинградские мальчишки участвовали в операции по обезвреживанию фашистского резидента Пауля Рихтера, орудующего в облике "однорукого дяди Пети".
    Доп. информация: Релиз:
    Огромная благодарность-Всем,благодаря кому появилась эта раздача,а также Kotik@41 за DVD с фильмом- http://perectracker.org/viewtopic.php?t=2592205.
    Автор рипа: pmv
    Семпл: http://sendfile.su/1024932
    Качество видео: DVDRip
    Формат видео: MKV
    Видео: AVC (H.264), 720@1008x432 (2,35:1), 25.000 fps, 2000 Kbps
    Аудио: AC3, 48 KHz, stereo 2 channels (L,R), 192 Kbps

    MediaInfo

    Complete name : Zelenie.tsepochki.1970.mkv
    Format : Matroska
    Format version : Version 4 / Version 2
    File size : 1.42 GiB
    Duration : 1h 32mn
    Overall bit rate : 2 193 Kbps
    Encoded date : UTC 2014-09-17 02:12:58
    Writing application : mkvmerge v7.2.0 ('On Every Street') 64bit built on Sep 13 2014 15:52:10
    Writing library : libebml v1.3.0 + libmatroska v1.4.1
    DURATION : 01:32:23.968000000
    NUMBER_OF_FRAMES : 173249
    NUMBER_OF_BYTES : 133055232
    _STATISTICS_WRITING_APP : mkvmerge v7.2.0 ('On Every Street') 64bit built on Sep 13 2014 15:52:10
    _STATISTICS_WRITING_DATE_UTC : 2014-09-17 02:12:58
    _STATISTICS_TAGS : BPS DURATION NUMBER_OF_FRAMES NUMBER_OF_BYTES
    Video
    ID : 1
    Format : AVC
    Format/Info : Advanced Video Codec
    Format profile : High@L3.1
    Format settings, CABAC : Yes
    Format settings, ReFrames : 7 frames
    Codec ID : V_MPEG4/ISO/AVC
    Duration : 1h 32mn
    Bit rate : 2 000 Kbps
    Width : 720@1008 pixels
    Height : 432 pixels
    Display aspect ratio : 2.35:1
    Original display aspect ratio : 1.667
    Frame rate mode : Constant
    Frame rate : 25.000 fps
    Color space : YUV
    Chroma subsampling : 4:2:0
    Bit depth : 8 bits
    Scan type : Progressive
    Bits/(Pixel*Frame) : 0.257
    Stream size : 1.26 GiB (89%)
    Writing library : x264 core 130 r2273 b3065e6
    Encoding settings : cabac=1 / ref=7 / deblock=1:0:0 / analyse=0x3:0x113 / me=umh / subme=9 / psy=1 /
    psy_rd=1.00:0.00 / mixed_ref=1 / me_range=24 / chroma_me=1 / trellis=1 / 8x8dct=1 / cqm=0 /
    deadzone=21,11 / fast_pskip=1 / chroma_qp_offset=-2 / threads=18 / lookahead_threads=1 /
    sliced_threads=0 / nr=0 / decimate=1 / interlaced=0 / bluray_compat=0 / constrained_intra=0 / bframes=3 /
    b_pyramid=2 / b_adapt=1 / b_bias=0 / direct=1 / weightb=1 / open_gop=0 / weightp=2 / keyint=250 /
    keyint_min=25 / scenecut=40 / intra_refresh=0 / rc_lookahead=40 / rc=2pass / mbtree=1 / bitrate=2000 /
    ratetol=1.0 / qcomp=0.60 / qpmin=0 / qpmax=69 / qpstep=4 / cplxblur=20.0 / qblur=0.5 / ip_ratio=1.40 /
    aq=1:1.00
    Default : Yes
    Forced : No
    Audio
    ID : 2
    Format : AC-3
    Format/Info : Audio Coding 3
    Mode extension : CM (complete main)
    Format settings, Endianness : Big
    Codec ID : A_AC3
    Duration : 1h 32mn
    Bit rate mode : Constant
    Bit rate : 192 Kbps
    Channel(s) : 2 channels
    Channel positions : Front: L R
    Sampling rate : 48.0 KHz
    Bit depth : 16 bits
    Compression mode : Lossy
    Delay relative to video : 16ms
    Stream size : 127 MiB (9%)
    Default : Yes
    Forced : No
    Скриншоты



    Скачать .torrent

    Скачать торрент-файл бесплатно и на максимальной скорости!

    Как скачивать? · Что такое торрент? · Рейтинг и ограничения

    !ВНИМАНИЕ!
    Сайт не распространяет и не хранит электронные версии произведений, а занимается лишь лишь предоставлением доступа к создаваемому пользователями каталогу ссылок на торрент-файлы, которые содержат только списки хеш-сумм, убедительная просьба с жалобами обращаться напрямую к пользователю. Файлы для обмена на трекере предоставлены пользователями сайта, и администрация не несёт ответственности за их содержание. Просьба не заливать файлы, защищенные авторскими правами, а также файлы нелегального содержания!


    _________________
    [Профиль] [ЛС]
    Показать сообщения:    
    Ответить на тему

    Текущее время: Сегодня, в 18:51

    Часовой пояс: GMT + 2



    Вы не можете начинать темы
    Вы не можете отвечать на сообщения
    Вы не можете редактировать свои сообщения
    Вы не можете удалять свои сообщения
    Вы не можете голосовать в опросах
    Вы не можете прикреплять файлы к сообщениям
    Вы не можете скачивать файлы