BitTorrentTracker PerecTracker.org
BitTorrentTracker PerecTracker.org
    
Регистрация  ·  Вход
 
 · 
Забыли пароль?

  • Варвара-Краса, длинная коса (Александр Роу) [1969, Сказка, семейный, HDRip]

    Ответить на тему
     
    Автор Сообщение

    Light

    Создавать темы 21-Мар-2015 19:55

           

    [Цитировать]

    Варвара-Краса, длинная косаЖанр: Сказка, семейный
    Год выпуска: 1969
    Продолжительность: 01:20:25
    Режиссёр: Александр Роу
    В ролях: Михаил Пуговкин, Георгий Милляр, Анатолий Кубацкий, Сергей Николаев, Алексей Катышев, Татьяна Клюева, Варвара Попова, Лидия Королева, Александр Хвыля, Борис Сичкин
    Описание: Жил да был царь Еремей. Отправился он в годовой поход, чтобы составить опись своего царства-государства. Наклонился он как-то к колодцу напиться, но тут его и схватил подводный царь Чудо — Юдо. Да потребовал выкуп за освобождение — такой, о чем Еремей не ведал и не гадал, что оно есть в его царстве. Царь согласился, еще не зная, что в его отсутствие царица родила ему сына. Фильм рассказывает о том, как несмотря на всевозможные коварства и интриги, Андрей рыбацкий сын и Варвара повстречались и полюбили друг друга, как царю Еремею пришлось краснеть за своего ленивого и глупого наследника, и как в конце концов все закончилось хорошо...
    Доп. информация:
    Рип от:

    Сэмпл: http://multi-up.com/1002706 или http://multi-up.com/1002707
    Качество видео: HDRip
    Формат видео: AVI
    Видео: 720x304 (2.37:1), 25 fps, XviD build 73 ~1156 kbps avg, 0.21 bit/pixel
    Аудио: 48 kHz, MPEG Layer 3, 2 ch, ~128.00 kbps avg

    MediaInfo

    General
    Complete name : D:\Торрент\МОЯ РАЗДАЧА\Варвара-Краса, длинная коса\Varvara.krasa.dlinnaya.kosa.1969.HDRip.by Шкипер.avi
    Format : AVI
    Format/Info : Audio Video Interleave
    File size : 744 MiB
    Duration : 1h 20mn
    Overall bit rate : 1 294 Kbps
    Writing application : VirtualDubMod 1.5.10.3 | www.virtualdub-fr.org || (build 2550/release)
    Writing library : VirtualDubMod build 2550/release
    Video
    ID : 0
    Format : MPEG-4 Visual
    Format profile : Advanced Simple@L5
    Format settings, BVOP : 1
    Format settings, QPel : No
    Format settings, GMC : No warppoints
    Format settings, Matrix : Default (MPEG)
    Codec ID : XVID
    Codec ID/Hint : XviD
    Duration : 1h 20mn
    Bit rate : 1 156 Kbps
    Width : 720 pixels
    Height : 304 pixels
    Display aspect ratio : 2.35:1
    Frame rate : 25.000 fps
    Color space : YUV
    Chroma subsampling : 4:2:0
    Bit depth : 8 bits
    Scan type : Progressive
    Compression mode : Lossy
    Bits/(Pixel*Frame) : 0.211
    Stream size : 665 MiB (89%)
    Writing library : XviD 73
    Audio
    ID : 1
    Format : MPEG Audio
    Format version : Version 1
    Format profile : Layer 3
    Mode : Joint stereo
    Codec ID : 55
    Codec ID/Hint : MP3
    Duration : 1h 20mn
    Bit rate mode : Constant
    Bit rate : 128 Kbps
    Channel(s) : 2 channels
    Sampling rate : 48.0 KHz
    Compression mode : Lossy
    Stream size : 73.6 MiB (10%)
    Alignment : Aligned on interleaves
    Interleave, duration : 40 ms (1.00 video frame)
    Interleave, preload duration : 504 ms
    Writing library : LAME3.99r
    Encoding settings : -m j -V 4 -q 2 -lowpass 17 -b 128

    Скриншот c названием фильма

    Скриншоты

    Скачать .torrent

    Скачать торрент-файл бесплатно и на максимальной скорости!

    Как скачивать? · Что такое торрент? · Рейтинг и ограничения

    !ВНИМАНИЕ!
    Сайт не распространяет и не хранит электронные версии произведений, а занимается лишь лишь предоставлением доступа к создаваемому пользователями каталогу ссылок на торрент-файлы, которые содержат только списки хеш-сумм, убедительная просьба с жалобами обращаться напрямую к пользователю. Файлы для обмена на трекере предоставлены пользователями сайта, и администрация не несёт ответственности за их содержание. Просьба не заливать файлы, защищенные авторскими правами, а также файлы нелегального содержания!


    _________________
    [Профиль] [ЛС]
    Показать сообщения:    
    Ответить на тему

    Текущее время: Сегодня, в 04:12

    Часовой пояс: GMT + 2



    Вы не можете начинать темы
    Вы не можете отвечать на сообщения
    Вы не можете редактировать свои сообщения
    Вы не можете удалять свои сообщения
    Вы не можете голосовать в опросах
    Вы не можете прикреплять файлы к сообщениям
    Вы не можете скачивать файлы