Register  ·  Log in
Forgot password?

  • Возьми меня с собой (Борис Рыцарев) [1979, Мелодрама, приключения, SATRip]

    Reply to topic
    Author Message


    Post 21-Mar-2015 20:55



    Возьми меня с собой
    Жанр: Мелодрама, приключения
    Год выпуска: 1979
    Продолжительность: 1:13:09
    Режиссёр: Борис Рыцарев
    В ролях: Алексей Зайцев, Людмила Дмитриева, Светлана Орлова, Артур Нищёнкин, Владимир Никитин, Александр Никифоров, Роман Филиппов, Николай Горлов, Сергей Тарасов
    Описание: Деревенская сиротка Дуняша с первой встречи полюбила скомороха-озорника Митроху. Любовь оказалась несчастной, потому как Митроха был нечувствительным хамом. За хамство его и выгнали из деревни. Дуняше стало жаль Митроху - и она решила составить компанию изгою...
    Доп. информация: Производство: К/ст им.Горького
    Качество видео: SATRip
    Формат видео: AVI
    Видео: XviD MPEG-4 , 704x528 (1.33:1) , 25 fps ,1 939 Kbps
    Аудио: AC3 , 48 kHz , 192.00 kbps avg , 2/0 (L,R) ch


    Complete name Возьми меня с собой 1979.avi
    Format : AVI
    Format/Info : Audio Video Interleave
    File size : 1.09 GiB
    Duration : 1h 13mn
    Overall bit rate : 2 141 Kbps
    Writing library : VirtualDub build 35491/release
    ID : 0
    Format : MPEG-4 Visual
    Format profile : Advanced Simple@L5
    Format settings, BVOP : 2
    Format settings, QPel : No
    Format settings, GMC : No warppoints
    Format settings, Matrix : Default (H.263)
    Codec ID : XVID
    Codec ID/Hint : XviD
    Duration : 1h 13mn
    Bit rate : 1 939 Kbps
    Width : 704 pixels
    Height : 528 pixels
    Display aspect ratio : 4:3
    Frame rate : 25.000 fps
    Color space : YUV
    Chroma subsampling : 4:2:0
    Bit depth : 8 bits
    Scan type : Progressive
    Compression mode : Lossy
    Bits/(Pixel*Frame) : 0.209
    Stream size : 1 015 MiB (91%)
    Writing library : XviD 1.2.1 (UTC 2008-12-04)
    ID : 1
    Format : AC-3
    Format/Info : Audio Coding 3
    Mode extension : CM (complete main)
    Format settings, Endianness : Big
    Codec ID : 2000
    Duration : 1h 13mn
    Bit rate mode : Constant
    Bit rate : 192 Kbps
    Channel(s) : 2 channels
    Channel positions : Front: L R
    Sampling rate : 48.0 KHz
    Bit depth : 16 bits
    Compression mode : Lossy
    Stream size : 100 MiB (9%)
    Alignment : Aligned on interleaves
    Interleave, duration : 40 ms (1.00 video frame)
    Interleave, preload duration : 512 ms


    Download .torrent

    Download free and at maximum speed!

    How to Download? · What is a torrent? · Ratings and Limitations

    The site does not extend and does not store electronic(digital) versions of products, and only gives access to a reference catalogue created by users on torrent-files which contain only lists of the hash-sums, the earnest entreaty, with complaints(abuse) to access directly to the user. Files for an exchange on tracker are given by users of a site, and the administration does not bear the responsibility for their maintenance. The request to not fill in the files protected by copyrights, and also files of the illegal maintenance!

    [Profile] [PM]
    Display posts from previous:    
    Reply to topic

    The time now is: Today 09:14

    All times are GMT + 3 Hours

    You cannot post new topics in this forum
    You cannot reply to topics in this forum
    You cannot edit your posts in this forum
    You cannot delete your posts in this forum
    You cannot vote in polls in this forum
    You cannot attach files in this forum
    You cannot download files in this forum