BitTorrentTracker PerecTracker.org
BitTorrentTracker PerecTracker.org
    
Регистрация  ·  Вход
 
 · 
Забыли пароль?

  • В одно прекрасное детство (Яков Сегель) [1979 г., детский, комедия, музыкальный, TVRip]

    Ответить на тему
     
    Автор Сообщение

    Light

    Создавать темы 21-Мар-2015 19:55

           

    [Цитировать]

    В одно прекрасное детствоГод выпуска: 1979.
    Жанр: детский, комедия, музыкальный.
    Продолжительность: 01:08:11.
    Режиссер: Яков Сегель.
    В ролях:
    Володя Гибенко, Лилиана Алешникова, Андрей Юренев, Дима Липсиц, Николай Скоробогатов, Наталья Рычагова, Леонид Ярмольник, Пётр Меркурьев, Игорь Ясулович, Леонид Швачкин, Игорь Косухин, Настя Янакиева, Юрий Воронков, Борис Гитин, Елена Волошина, Вадим Захарченко, Ольга Маркина.
    Описание:
    Детская музыкальная комедия.
    Один день из далекого прекрасного детства Петиного дедушки, воспоминанием о котором он делится с пятилетним внуком. Петя переносится в то время, когда его дедушка вместо обезьянки под бурные овации зрителей выступал в цирке и совершал чудесные полеты на аэроплане. В фильме все поют, танцуют и попадают в самые невероятные ситуации.

    Доп. информация:
    Страна: СССР .
    Киностудия: Киностудия им. М. Горького.
    Автор сценария: Яков Сегель.
    Оператор: Александр Ковальчук.
    Композитор: Владимир Дашкевич.
    Художник: Виктор Власков.
    Премьера: август 1980 года.

    Еще постер

    Релиз
    Рип sharky.

    Качество: TVRip
    Формат: AVI
    Видео: 704x528 (1.33:1), 25 fps, DivX Codec 4.x ~2152 kbps avg, 0.23 bit/pixel
    Аудио: 48 kHz, MPEG Layer 3, 2 ch, ~128.00 kbps avg

    Отчет MediaInfo

    Общее
    Полное имя : V.odno.prekrasnoe.detstvo.1979.DviX.TVRip.fenixclub.avi
    Format : AVI
    Format/Info : Audio Video Interleave
    File size : 1.09 GiB
    Duration : 1h 8mn
    Overall bit rate : 2 290 Kbps
    Writing application : VirtualDubMod 1.5.10.2 (build 2542/release)
    Writing library : VirtualDubMod build 2542/release
    Video
    ID : 0
    Format : MPEG-4 Visual
    Format settings, BVOP : 1
    Format settings, QPel : No
    Format settings, GMC : No warppoints
    Format settings, Matrix : Default (H.263)
    Muxing mode : Packed bitstream
    Codec ID : DX50
    Codec ID/Hint : DivX 5
    Duration : 1h 8mn
    Bit rate : 2 152 Kbps
    Width : 704 pixels
    Height : 528 pixels
    Display aspect ratio : 4:3
    Frame rate : 25.000 fps
    Color space : YUV
    Chroma subsampling : 4:2:0
    Bit depth : 8 bits
    Scan type : Progressive
    Compression mode : Lossy
    Bits/(Pixel*Frame) : 0.232
    Stream size : 1.02 GiB (94%)
    Writing library : DivX 3013
    Audio
    ID : 1
    Format : MPEG Audio
    Format version : Version 1
    Format profile : Layer 3
    Codec ID : 55
    Codec ID/Hint : MP3
    Duration : 1h 8mn
    Bit rate mode : Constant
    Bit rate : 128 Kbps
    Channel(s) : 2 channels
    Sampling rate : 48.0 KHz
    Compression mode : Lossy
    Stream size : 62.4 MiB (6%)
    Alignment : Aligned on interleaves
    Interleave, duration : 40 ms (1.00 video frame)
    Interleave, preload duration : 504 ms
    Writing library : L3.99r
    Encoding settings : -m s -V 4 -q 2 -lowpass 17 -b 128
    Скриншоты

    Альтернативный хост


    Скачать .torrent

    Скачать торрент-файл бесплатно и на максимальной скорости!

    Как скачивать? · Что такое торрент? · Рейтинг и ограничения

    !ВНИМАНИЕ!
    Сайт не распространяет и не хранит электронные версии произведений, а занимается лишь лишь предоставлением доступа к создаваемому пользователями каталогу ссылок на торрент-файлы, которые содержат только списки хеш-сумм, убедительная просьба с жалобами обращаться напрямую к пользователю. Файлы для обмена на трекере предоставлены пользователями сайта, и администрация не несёт ответственности за их содержание. Просьба не заливать файлы, защищенные авторскими правами, а также файлы нелегального содержания!


    _________________
    [Профиль] [ЛС]
    Показать сообщения:    
    Ответить на тему

    Текущее время: Сегодня, в 22:53

    Часовой пояс: GMT + 2



    Вы не можете начинать темы
    Вы не можете отвечать на сообщения
    Вы не можете редактировать свои сообщения
    Вы не можете удалять свои сообщения
    Вы не можете голосовать в опросах
    Вы не можете прикреплять файлы к сообщениям
    Вы не можете скачивать файлы