BitTorrentTracker PerecTracker.org
BitTorrentTracker PerecTracker.org
    
Регистрация  ·  Вход
 
 · 
Забыли пароль?

  • Новые похождения кота в сапогах (Александр Роу) [1958, сказка, DVDRip-AVC]

    Ответить на тему
     
    Автор Сообщение

    Light

    Создавать темы 21-Мар-2015 19:55

           

    [Цитировать]

    Новые похождения кота в сапогах-Жанр: сказка
    Год выпуска: 1958
    Продолжительность: 01:23:25
    Cубтитры: русские, внешние-Режиссёр: Александр Роу-В ролях:
    Мария Барабанова, Анатолий Кубацкий, Вячеслав Жариков, Тамара Носова, Георгий Милляр, Лидия Вертинская, Владимир Володин, Никита Кондратьев, Лев Потемкин
    Описание:
    Любе приснился сон. Она, дочь шахматного короля, становится жертвой коварного заговора и похищена колдуньей. На её поиски отправляются сын мельника и его друг - волшебный кот. Много трудностей пришлось им испытать, пока они не достигли замка колдуньи и не спасли принцессу.-Исходник | Сэмпл | Кинопоиск-Качество видео: DVDRip-AVC, благодарю olegb59 за оригинал DVD.
    Формат видео: MKV
    Видео: x264 (High@L4.1); 698@744x574, Display aspect ratio 1.296:1, 25.000 fps, 2300 Kbps
    Аудио 1: AC-3; 16 bits 48 Khz; 2.0ch 192 Kbps; CBR
    Аудио 2: AC-3; 16 bits 48 Khz; 5.1ch 448 Kbps; CBR (отдельно)
    Формат субтитров: softsub (SRT) (отдельно)
    MediaInfo

    -

    x264 log

    avs [info]: 698x574p 16:15 @ 25/1 fps (cfr)
    x264 [info]: using SAR=16/15
    x264 [info]: using cpu capabilities: MMX2 SSE2Fast SSSE3 SSE4.2
    x264 [info]: profile High, level 4.1
    x264 [info]: frame I:762 Avg QP:19.84 size: 56337
    x264 [info]: frame P:27655 Avg QP:22.62 size: 23874
    x264 [info]: frame B:96708 Avg QP:24.04 size: 7608
    x264 [info]: consecutive B-frames: 1.7% 1.8% 7.3% 28.5% 18.4% 37.8% 3.2% 0.9% 0.3% 0.1% 0.0%
    x264 [info]: mb I I16..4: 0.9% 85.8% 13.4%
    x264 [info]: mb P I16..4: 0.1% 7.4% 0.7% P16..4: 31.8% 40.1% 18.2% 1.5% 0.1% skip: 0.1%
    x264 [info]: mb B I16..4: 0.0% 0.8% 0.1% B16..8: 37.3% 26.8% 5.2% direct: 6.8% skip:23.1% L0:38.3% L1:43.7% BI:18.0%
    x264 [info]: 8x8 transform intra:89.5% inter:63.8%
    x264 [info]: direct mvs spatial:98.4% temporal:1.6%
    x264 [info]: coded y,uvDC,uvAC intra: 98.0% 79.3% 42.6% inter: 38.8% 22.3% 3.1%
    x264 [info]: i16 v,h,dc,p: 26% 14% 3% 57%
    x264 [info]: i8 v,h,dc,ddl,ddr,vr,hd,vl,hu: 8% 7% 3% 11% 16% 15% 15% 13% 13%
    x264 [info]: i4 v,h,dc,ddl,ddr,vr,hd,vl,hu: 11% 7% 1% 8% 16% 17% 15% 13% 12%
    x264 [info]: i8c dc,h,v,p: 32% 24% 22% 23%
    x264 [info]: Weighted P-Frames: Y:39.7% UV:21.1%
    x264 [info]: ref P L0: 40.6% 13.4% 15.2% 7.1% 4.7% 3.8% 3.2% 1.9% 1.7% 1.5% 1.4% 1.3% 1.2% 1.1% 1.1% 0.8%
    x264 [info]: ref B L0: 78.2% 9.3% 3.3% 2.0% 1.4% 1.3% 1.0% 0.7% 0.6% 0.5% 0.5% 0.5% 0.4% 0.3% 0.1%
    x264 [info]: ref B L1: 95.9% 4.1%
    x264 [info]: kb/s:2299.96
    x264 [total]: encoded 125125 frames, 9.94 fps, 2299.96 kb/s
    -General
    Unique ID : 239712823548156466956428061605662210811 (0xB45702AFA2F3E73B8DD853DA002ABAFB)
    Complete name : Новые похождения кота в сапогах.1958.mkv
    Format : Matroska
    Format version : Version 2
    File size : 1.45 GiB
    Duration : 1h 23mn
    Overall bit rate : 2 494 Kbps
    Movie name : «Новые похождения кота в сапогах»
    Encoded date : UTC 2014-11-22 07:40:49
    Writing application : mkvmerge v5.8.0 ('No Sleep / Pillow') built on Sep 2 2012 15:37:04
    Writing library : libebml v1.2.3 + libmatroska v1.3.0
    Comment : DVDRip-AVC
    Originally released : November 21st 2014
    Encoded by : george$t®
    Video
    ID : 1
    Format : AVC
    Format/Info : Advanced Video Codec
    Format profile : High@L4.1
    Format settings, CABAC : Yes
    Format settings, ReFrames : 16 frames
    Codec ID : V_MPEG4/ISO/AVC
    Duration : 1h 23mn
    Bit rate : 2 300 Kbps
    Width : 698 pixels
    Height : 574 pixels
    Display aspect ratio : 1.296
    Original display aspect ratio : 1.297
    Frame rate mode : Constant
    Frame rate : 25.000 fps
    Color space : YUV
    Chroma subsampling : 4:2:0
    Bit depth : 8 bits
    Scan type : Progressive
    Bits/(Pixel*Frame) : 0.230
    Stream size : 1.31 GiB (90%)
    Title : Новые похождения кота в сапогах.1958
    Writing library : x264 core 130 r2273 b3065e6
    Encoding settings : cabac=1 / ref=16 / deblock=1:-2:-2 / analyse=0x3:0x133 / me=umh / subme=11 / psy=1 / psy_rd=0.90:0.00 / mixed_ref=1 / me_range=48 / chroma_me=1 / trellis=2 / 8x8dct=1 / cqm=0 / deadzone=21,11 / fast_pskip=0 / chroma_qp_offset=-2 / threads=12 / lookahead_threads=3 / sliced_threads=0 / nr=0 / decimate=0 / interlaced=0 / bluray_compat=0 / constrained_intra=0 / bframes=10 / b_pyramid=2 / b_adapt=2 / b_bias=0 / direct=3 / weightb=1 / open_gop=0 / weightp=2 / keyint=250 / keyint_min=25 / scenecut=40 / intra_refresh=0 / rc=2pass / mbtree=0 / bitrate=2300 / ratetol=1.0 / qcomp=0.60 / qpmin=0 / qpmax=32 / qpstep=4 / cplxblur=20.0 / qblur=0.5 / ip_ratio=1.30 / pb_ratio=1.30 / aq=1:0.90
    Language : Russian
    Default : Yes
    Forced : No
    Color primaries : BT.601 PAL
    Transfer characteristics : BT.470 System B, BT.470 System G
    Matrix coefficients : BT.601
    Audio
    ID : 2
    Format : AC-3
    Format/Info : Audio Coding 3
    Mode extension : CM (complete main)
    Format settings, Endianness : Big
    Codec ID : A_AC3
    Duration : 1h 23mn
    Bit rate mode : Constant
    Bit rate : 192 Kbps
    Channel(s) : 2 channels
    Channel positions : Front: L R
    Sampling rate : 48.0 KHz
    Bit depth : 16 bits
    Compression mode : Lossy
    Stream size : 115 MiB (8%)
    Title : Оригинал: AC-3; 16 bits 48 Khz; 2.0ch 192 Kbps; CBR.
    Language : Russian
    Default : Yes
    Forced : No
    Скачать .torrent

    Скачать торрент-файл бесплатно и на максимальной скорости!

    Как скачивать? · Что такое торрент? · Рейтинг и ограничения

    !ВНИМАНИЕ!
    Сайт не распространяет и не хранит электронные версии произведений, а занимается лишь лишь предоставлением доступа к создаваемому пользователями каталогу ссылок на торрент-файлы, которые содержат только списки хеш-сумм, убедительная просьба с жалобами обращаться напрямую к пользователю. Файлы для обмена на трекере предоставлены пользователями сайта, и администрация не несёт ответственности за их содержание. Просьба не заливать файлы, защищенные авторскими правами, а также файлы нелегального содержания!


    _________________
    [Профиль] [ЛС]
    Показать сообщения:    
    Ответить на тему

    Текущее время: Сегодня, в 23:50

    Часовой пояс: GMT + 2



    Вы не можете начинать темы
    Вы не можете отвечать на сообщения
    Вы не можете редактировать свои сообщения
    Вы не можете удалять свои сообщения
    Вы не можете голосовать в опросах
    Вы не можете прикреплять файлы к сообщениям
    Вы не можете скачивать файлы