Register  ·  Log in
Forgot password?

  • Дети партизана (Лев Голуб, Николай Фигуровский) [1954, Киноповесть, DVDScreener]

    Reply to topic
    Author Message


    Post 21-Mar-2015 20:55



    Дети партизана
    Жанр: Киноповесть
    Год выпуска: 1954
    Продолжительность: 01:16:59
    Режиссёр: Лев Голуб, Николай Фигуровский

    В ролях: Виталий Комиссаров, Наталья Защипина, Павел Волков, Павел Молчанов, Любовь Мозалевская, Олег Жаков, Павел Шпрингфельд, Григорий Шпигель
    Описание: На каникулы к своему деду леснику Якубу приезжает юный суворовец Михась - сын погибшего во время войны партизана. Вместе с сестренкой Олесей они бродят по местам партизанских боев с фашистами. В это же время на расположившейся неподалеку геологоразведочной базе орудует враг - проводник Глушко, получивший задание сфотографировать секретные карты.
    Доп. информация: Релиз: , pmv
    Сравнение:Качество видео: DVDScreener
    Формат видео: AVI
    Видео: 720x544 (1.32:1), 25 fps, XviD build 73 ~1927 kbps avg, 0.20 bit/pixel
    Аудио: 48 kHz, MPEG Layer 3, 1 ch, ~96.00 kbps avg


    Format : AVI
    Format/Info : Audio Video Interleave
    File size : 1.09 GiB
    Duration : 1h 16mn
    Overall bit rate : 2 033 Kbps
    Writing library : VirtualDub build 35560/release
    ID : 0
    Format : MPEG-4 Visual
    Format profile : Advanced Simple@L5
    Format settings, BVOP : 2
    Format settings, QPel : No
    Format settings, GMC : No warppoints
    Format settings, Matrix : Default (H.263)
    Codec ID : XVID
    Codec ID/Hint : XviD
    Duration : 1h 16mn
    Bit rate : 1 928 Kbps
    Width : 720 pixels
    Height : 544 pixels
    Display aspect ratio : 4:3
    Frame rate : 25.000 fps
    Color space : YUV
    Chroma subsampling : 4:2:0
    Bit depth : 8 bits
    Scan type : Progressive
    Compression mode : Lossy
    Bits/(Pixel*Frame) : 0.197
    Stream size : 1.04 GiB (95%)
    Writing library : XviD 73
    ID : 1
    Format : MPEG Audio
    Format version : Version 1
    Format profile : Layer 3
    Codec ID : 55
    Codec ID/Hint : MP3
    Duration : 1h 16mn
    Bit rate mode : Constant
    Bit rate : 96.0 Kbps
    Channel(s) : 1 channel
    Sampling rate : 48.0 KHz
    Compression mode : Lossy
    Stream size : 52.9 MiB (5%)
    Alignment : Split accross interleaves
    Interleave, duration : 40 ms (1.00 video frame)
    Interleave, preload duration : 500 ms

    Скриншот c названием фильма


    Download .torrent

    Download free and at maximum speed!

    How to Download? · What is a torrent? · Ratings and Limitations

    The site does not extend and does not store electronic(digital) versions of products, and only gives access to a reference catalogue created by users on torrent-files which contain only lists of the hash-sums, the earnest entreaty, with complaints(abuse) to access directly to the user. Files for an exchange on tracker are given by users of a site, and the administration does not bear the responsibility for their maintenance. The request to not fill in the files protected by copyrights, and also files of the illegal maintenance!

    [Profile] [PM]
    Display posts from previous:    
    Reply to topic

    The time now is: Today 11:39

    All times are GMT + 3 Hours

    You cannot post new topics in this forum
    You cannot reply to topics in this forum
    You cannot edit your posts in this forum
    You cannot delete your posts in this forum
    You cannot vote in polls in this forum
    You cannot attach files in this forum
    You cannot download files in this forum