Register  ·  Log in
Forgot password?

  • Буйная ватага (Александр Попов, Гамар Саламзаде) [1937 г., детский, комедия, WEB-DLRip] немое кино

    Reply to topic
    Author Message


    Post 21-Mar-2015 20:55



    Буйная ватага / Дяджял дястя / Dəcəl DəstəГод выпуска: 1937.
    Жанр: детский, комедия.
    Продолжительность: 00:54:16.
    Режиссер: Александр Попов, Гамар Саламзаде.
    В ролях:
    А. Варганова, М. Ахмедов, А. Багирова, А. Мирзоев, Лейла Бадирбейли (Джаванширова), Н. Антонов, Геннадий Молодцов.
    Фильм снят в комедийном жанре повествует о жизни учеников из одной из бакинских школ.
    Доп. информация:
    Страна: СССР .
    Киностудия: Бакинская студия художественных фильмов.
    Премьера: 21 мая 1938 года.
    Автор сценария: Юрий Фидлер.
    Оператор: Леон Аристакесов.
    Композитор: Модест Бахчисарайцев.
    Художники: Виктор Аден, Н. Селимханов, Н. Оганян.

    Рип sharky.

    Качество: WEB-DLRip
    Формат: AVI
    Видео: 704x528 (1.33:1), 25 fps, XviD build 50 ~1719 kbps avg, 0.19 bit/pixel
    Аудио: 48 kHz, AC3 Dolby Digital, 2/0 (L,R) ch, ~192 kbps

    Отчет MI

    Complete name : Bujnaya.vataga.1937.XviD.WEB-DLRip.fenixclub.avi
    Format : AVI
    Format/Info : Audio Video Interleave
    File size : 746 MiB
    Duration : 54mn 15s
    Overall bit rate : 1 922 Kbps
    Writing application : VirtualDubMod | || (build 2550/release)
    Writing library : VirtualDubMod build 2550/release
    ID : 0
    Format : MPEG-4 Visual
    Format profile : Advanced Simple@L5
    Format settings, BVOP : 1
    Format settings, QPel : No
    Format settings, GMC : No warppoints
    Format settings, Matrix : Default (H.263)
    Codec ID : XVID
    Codec ID/Hint : XviD
    Duration : 54mn 15s
    Bit rate : 1 720 Kbps
    Width : 704 pixels
    Height : 528 pixels
    Display aspect ratio : 4:3
    Frame rate : 25.000 fps
    Color space : YUV
    Chroma subsampling : 4:2:0
    Bit depth : 8 bits
    Scan type : Progressive
    Compression mode : Lossy
    Bits/(Pixel*Frame) : 0.185
    Stream size : 668 MiB (90%)
    Writing library : XviD 1.2.1 (UTC 2008-12-04)
    ID : 1
    Format : AC-3
    Format/Info : Audio Coding 3
    Mode extension : CM (complete main)
    Format settings, Endianness : Big
    Codec ID : 2000
    Duration : 54mn 15s
    Bit rate mode : Constant
    Bit rate : 192 Kbps
    Channel(s) : 2 channels
    Channel positions : Front: L R
    Sampling rate : 48.0 KHz
    Bit depth : 16 bits
    Compression mode : Lossy
    Stream size : 74.5 MiB (10%)
    Alignment : Split accross interleaves
    Interleave, duration : 40 ms (1.00 video frame)
    Interleave, preload duration : 500 ms.

    Альтернативный хост

    Download .torrent

    Download free and at maximum speed!

    How to Download? · What is a torrent? · Ratings and Limitations

    The site does not extend and does not store electronic(digital) versions of products, and only gives access to a reference catalogue created by users on torrent-files which contain only lists of the hash-sums, the earnest entreaty, with complaints(abuse) to access directly to the user. Files for an exchange on tracker are given by users of a site, and the administration does not bear the responsibility for their maintenance. The request to not fill in the files protected by copyrights, and also files of the illegal maintenance!

    [Profile] [PM]
    Display posts from previous:    
    Reply to topic

    The time now is: Today 16:28

    All times are GMT + 3 Hours

    You cannot post new topics in this forum
    You cannot reply to topics in this forum
    You cannot edit your posts in this forum
    You cannot delete your posts in this forum
    You cannot vote in polls in this forum
    You cannot attach files in this forum
    You cannot download files in this forum